<?xml version="1.0" standalone="no"?>
<!DOCTYPE svg PUBLIC "-//W3C//DTD SVG 1.1//EN" "http://www.w3.org/Graphics/SVG/1.1/DTD/svg11.dtd" >
<svg xmlns="http://www.w3.org/2000/svg" xmlns:xlink="http://www.w3.org/1999/xlink" version="1.1">
<metadata>
Created by FontForge 20200511 at Fri Jan  1 00:00:00 1904
 By convertio
</metadata>
<defs>
<font id="MaterialDesignIcons" horiz-adv-x="512" >
  <font-face 
    font-family="Material Design Icons"
    font-weight="400"
    font-stretch="normal"
    units-per-em="512"
    panose-1="2 0 5 3 0 0 0 0 0 0"
    ascent="448"
    descent="-64"
    bbox="0 -64.7273 939 448.462"
    underline-thickness="0"
    underline-position="5"
    unicode-range="U+F0001-F19C3"
  />
    <missing-glyph />
    <glyph glyph-name=".notdef" horiz-adv-x="0" 
 />
    <glyph glyph-name="vector-square" unicode="&#xf0001;" 
d="M43 405h128v-42h170v42h128v-128h-42v-170h42v-128h-128v42h-170v-42h-128v128h42v170h-42v128zM341 277v43h-170v-43h-43v-170h43v-43h170v43h43v170h-43zM85 363v-43h43v43h-43zM384 363v-43h43v43h-43zM85 64v-43h43v43h-43zM384 64v-43h43v43h-43z" />
    <glyph glyph-name="access-point-network" unicode="&#xf0002;" 
d="M105 364q-29 -29 -45.5 -68t-16.5 -82.5t16.5 -82.5t45.5 -68l30 30q-23 23 -36.5 54t-13.5 66t13.5 66.5t36.5 54.5zM407 364l-30 -30q23 -23 36.5 -54.5t13.5 -66.5t-13.5 -66t-36.5 -54l30 -30q29 29 45.5 68t16.5 82.5t-16.5 82.5t-45.5 68zM166 304
q-18 -18 -28 -41.5t-10 -49.5t10 -49t28 -41l30 30q-25 25 -25 60.5t25 60.5zM346 304l-30 -30q25 -25 25 -60.5t-25 -60.5l30 -30q18 18 28 41t10 49t-10 49.5t-28 41.5zM256 256q-18 0 -30.5 -12.5t-12.5 -30t12.5 -30t30.5 -12.5t30.5 12.5t12.5 30t-12.5 30t-30.5 12.5z
M235 128v-85h-22q-9 0 -15 -6.5t-6 -15.5h-149v-42h149q0 -9 6 -15.5t15 -6.5h86q9 0 15 6.5t6 15.5h149v42h-149q0 9 -6 15.5t-15 6.5h-22v85h-42z" />
    <glyph glyph-name="access-point" unicode="&#xf0003;" 
d="M105 343q-29 -30 -45.5 -69t-16.5 -82t16.5 -82t45.5 -69l30 30q-23 24 -36.5 55t-13.5 66t13.5 66t36.5 55zM407 343l-30 -30q23 -24 36.5 -55t13.5 -66t-13.5 -66t-36.5 -55l30 -30q29 30 45.5 69t16.5 82t-16.5 82t-45.5 69zM166 282q-18 -17 -28 -40.5t-10 -49.5
t10 -49.5t28 -40.5l30 30q-25 25 -25 60t25 60zM346 282l-30 -30q25 -25 25 -60t-25 -60l30 -30q18 17 28 40.5t10 49.5t-10 49.5t-28 40.5zM256 235q-18 0 -30.5 -12.5t-12.5 -30.5t12.5 -30.5t30.5 -12.5t30.5 12.5t12.5 30.5t-12.5 30.5t-30.5 12.5z" />
    <glyph glyph-name="account" unicode="&#xf0004;" 
d="M256 363q35 0 60 -25t25 -60.5t-25 -60.5t-60 -25t-60 25t-25 60.5t25 60.5t60 25zM256 149q46 0 85.5 -11.5t62.5 -31t23 -42.5v-43h-342v43q0 23 23 42.5t62.5 31t85.5 11.5z" />
    <glyph glyph-name="account-alert" unicode="&#xf0005;" 
d="M213 363q36 0 61 -25t25 -60.5t-25 -60.5t-60.5 -25t-60.5 25t-25 60.5t25 60.5t60 25zM213 149q47 0 86 -11.5t62 -31t23 -42.5v-43h-341v43q0 23 23 42.5t62 31t85 11.5zM427 192v107h42v-128h-42v21zM427 85v43h42v-43h-42z" />
    <glyph glyph-name="account-box" unicode="&#xf0006;" 
d="M128 85q0 20 24 36q20 14 52 23q29 7 52 7t52 -7q32 -9 52 -23q24 -16 24 -36v-21h-256v21zM320 256q0 -27 -18.5 -45.5t-45.5 -18.5t-45.5 18.5t-18.5 45.5t18.5 45.5t45.5 18.5t45.5 -18.5t18.5 -45.5zM64 341v-298q0 -18 12.5 -30.5t30.5 -12.5h298q18 0 30.5 12.5
t12.5 30.5v298q0 18 -12.5 30.5t-30.5 12.5h-298q-18 0 -30.5 -12.5t-12.5 -30.5z" />
    <glyph glyph-name="account-box-outline" unicode="&#xf0007;" 
d="M405 43h-298v298h298v-298zM405 384h-298q-18 0 -30.5 -12.5t-12.5 -30.5v-298q0 -18 12.5 -30.5t30.5 -12.5h298q18 0 30.5 12.5t12.5 30.5v298q0 18 -12.5 30.5t-30.5 12.5zM352 101q0 15 -18 27q-15 10 -39 16q-21 5 -39 5t-39 -5q-24 -6 -39 -16q-18 -12 -18 -27v-16
h192v16zM256 187q20 0 34 14t14 34t-14 34t-34 14t-34 -14t-14 -34t14 -34t34 -14z" />
    <glyph glyph-name="account-check" unicode="&#xf0008;" 
d="M450 181l30 -30l-139 -140l-74 74l30 30l44 -44zM213 85l64 -64h-213v43q0 23 23 42.5t62 31t86 11.5l40 -2zM235 363q35 0 60 -25t25 -60.5t-25 -60.5t-60.5 -25t-60.5 25t-25 60.5t25 60.5t61 25z" />
    <glyph glyph-name="account-circle" unicode="&#xf0009;" 
d="M256 38q-39 0 -73 18.5t-55 50.5q0 19 24 36q20 14 52 22q29 8 52 8t52 -8q32 -8 52 -22q24 -17 24 -36q-21 -32 -55 -50.5t-73 -18.5zM256 341q27 0 45.5 -18.5t18.5 -45t-18.5 -45.5t-45.5 -19t-45.5 19t-18.5 45.5t18.5 45t45.5 18.5zM256 405q-42 0 -81.5 -16
t-69.5 -46t-46 -69.5t-16 -81.5t16 -81.5t46 -69.5t69.5 -46t81.5 -16t81.5 16t69.5 46t46 69.5t16 81.5q0 58 -28.5 107t-77.5 77.5t-107 28.5z" />
    <glyph glyph-name="account-convert" unicode="&#xf000a;" 
d="M256 448l-14 -1l81 -81l29 29q53 -26 87 -74t40 -108h32q-5 65 -40.5 119t-92 85t-122.5 31zM256 363q-31 0 -53 -22t-22 -53t22 -53t53 -22t53 22t22 53t-22 53t-53 22zM1 171q5 -65 40.5 -119t92 -85t122.5 -31l14 1l-81 81l-29 -29q-53 26 -87 74t-40 108h-32z
M256 171q-41 0 -75 -10t-54 -27.5t-20 -37.5v-32h298v32q0 20 -20 37.5t-54 27.5t-75 10z" />
    <glyph glyph-name="account-key" unicode="&#xf000b;" 
d="M235 235v-43h-43v-43h-43v43h-25q-7 -19 -23 -31t-37 -12q-27 0 -45.5 18.5t-18.5 46t18.5 45.5t45.5 18q21 0 37 -11.5t23 -30.5h111zM64 235q-10 0 -15.5 -6t-5.5 -15.5t5.5 -15.5t15.5 -6t15.5 6t5.5 15.5t-5.5 15.5t-15.5 6zM341 149q32 0 70 -9q43 -11 70 -28
q31 -21 31 -48v-43h-341v43q0 27 31 48q27 17 69 28q38 9 70 9zM341 192q-35 0 -60 25t-25 60.5t25 60.5t60.5 25t60.5 -25t25 -60.5t-25 -60.5t-61 -25z" />
    <glyph glyph-name="tooltip-account" unicode="&#xf000c;" 
d="M427 405h-342q-17 0 -29.5 -12.5t-12.5 -29.5v-256q0 -18 12.5 -30.5t29.5 -12.5h86l85 -85l85 85h86q17 0 29.5 12.5t12.5 30.5v256q0 17 -12.5 29.5t-29.5 12.5zM256 356q24 0 41 -16.5t17 -40.5t-17 -41t-41 -17t-41 17t-17 41t17 40.5t41 16.5zM384 128h-256v19
q0 20 24 36q20 14 52 23q29 7 52 7t52 -7q32 -9 52 -23q24 -16 24 -36v-19z" />
    <glyph glyph-name="account-minus" unicode="&#xf000d;" 
d="M320 149q-32 0 -70 -9q-43 -11 -69 -29q-32 -21 -32 -47v-43h342v43q0 26 -32 47q-26 18 -69 29q-38 9 -70 9zM21 235v-43h171v43h-171zM320 192q35 0 60 25t25 60.5t-25 60.5t-60 25t-60 -25t-25 -60.5t25 -60.5t60 -25z" />
    <glyph glyph-name="account-multiple" unicode="&#xf000e;" 
d="M341 85v-42h-298v42l1 9q2 11 8 21q9 15 23 26q18 13 44 21q31 9 73 9q66 0 105 -22q28 -16 39 -42q5 -12 5 -22v0zM267 288q0 23 -13 41.5t-33.5 27.5t-43 4.5t-38.5 -20.5t-20.5 -38.5t4.5 -43t27.5 -33.5t41.5 -13q31 0 53 22t22 53zM340 171q20 -16 31.5 -38.5
t12.5 -47.5v-42h85v42l-1 8q-2 10 -7 20q-7 14 -20 24q-15 14 -38 22q-27 9 -63 12zM320 363q-23 0 -41 -13q20 -28 20 -62t-20 -62q18 -13 41 -13q31 0 53 22t22 53t-22 53t-53 22z" />
    <glyph glyph-name="account-multiple-outline" unicode="&#xf000f;" 
d="M279 226q20 28 20 62t-20 62q18 13 41 13q31 0 53 -22t22 -53t-22 -53t-53 -22q-23 0 -41 13zM117 288q0 23 13 41.5t33.5 27.5t43 4.5t38.5 -20.5t20.5 -38.5t-4.5 -43t-27.5 -33.5t-41.5 -13q-31 0 -53 22t-22 53zM160 288q0 -13 9.5 -22.5t22.5 -9.5t22.5 9.5
t9.5 22.5t-9.5 22.5t-22.5 9.5t-22.5 -9.5t-9.5 -22.5zM341 85v-42h-298v42l1 9q2 11 8 21q9 15 23 26q18 13 44 21q31 9 73 9q66 0 105 -22q28 -16 39 -42q5 -12 5 -22v0zM299 85q-3 16 -25 28q-29 15 -82 15q-36 0 -62 -8q-22 -6 -34 -17q-10 -9 -11 -18h214zM340 171
q20 -16 31.5 -38.5t12.5 -47.5v-42h85v42l-1 8q-2 10 -7 20q-7 14 -20 24q-15 14 -38 22q-27 9 -63 12z" />
    <glyph glyph-name="account-multiple-plus" unicode="&#xf0010;" 
d="M405 85v-42h-256v42l1 9q2 11 8 21q7 15 19 26q15 13 38 21q26 9 62 9q57 0 90 -22q24 -16 34 -42q4 -12 4 -22v0zM341 277q0 27 -18.5 45.5t-45 18.5t-45.5 -18.5t-19 -45t19 -45.5t45.5 -19t45 19t18.5 45zM410 169q17 -16 27 -38t11 -46v-42h64v42l-2 12q-3 14 -11 26
q-11 18 -30 29q-24 14 -59 17zM384 341q-10 0 -19 -3q19 -27 19 -60.5t-19 -61.5q9 -3 19 -3q27 0 45.5 19t18.5 45.5t-18.5 45t-45.5 18.5zM171 235h-64v64h-43v-64h-64v-43h64v-64h43v64h64v43z" />
    <glyph glyph-name="account-network" unicode="&#xf0011;" 
d="M277 85v-42h22q9 0 15 -6.5t6 -15.5h149v-42h-149q0 -9 -6 -15.5t-15 -6.5h-86q-9 0 -15 6.5t-6 15.5h-149v42h149q0 9 6 15.5t15 6.5h22v42h-128v32q0 21 20 38t54 27t75 10t75 -10t54 -27t20 -38v-32h-128zM256 384q31 0 53 -22t22 -53t-22 -52.5t-53 -21.5t-53 21.5
t-22 52.5t22 53t53 22z" />
    <glyph glyph-name="account-off" unicode="&#xf0012;" 
d="M256 363q35 0 60 -25t25 -61q0 -31 -19.5 -54.5t-49.5 -29.5l-100 100q6 30 29.5 50t54.5 20zM262 149l128 -128l37 -36l-27 -28l-64 64h-251v43q0 29 35.5 52t90.5 30l-152 152l27 27zM427 64v-25l-104 104q46 -10 75 -31.5t29 -47.5z" />
    <glyph glyph-name="account-outline" unicode="&#xf0013;" 
d="M256 363q35 0 60 -25t25 -60.5t-25 -60.5t-60 -25t-60 25t-25 60.5t25 60.5t60 25zM256 320q-18 0 -30.5 -12.5t-12.5 -30t12.5 -30t30.5 -12.5t30.5 12.5t12.5 30t-12.5 30t-30.5 12.5zM256 171q32 0 70 -10q43 -11 69 -28q32 -21 32 -48v-64h-342v64q0 27 32 48
q26 17 69 28q38 10 70 10zM256 130q-30 0 -62 -8q-28 -8 -48 -19t-20 -18v-23h260v23q0 7 -20 18t-48 19q-32 8 -62 8z" />
    <glyph glyph-name="account-plus" unicode="&#xf0014;" 
d="M320 149q-32 0 -70 -9q-43 -11 -69 -29q-32 -21 -32 -47v-43h342v43q0 26 -32 47q-26 18 -69 29q-38 9 -70 9zM128 235v64h-43v-64h-64v-43h64v-64h43v64h64v43h-64zM320 192q35 0 60 25t25 60.5t-25 60.5t-60 25t-60 -25t-25 -60.5t25 -60.5t60 -25z" />
    <glyph glyph-name="account-remove" unicode="&#xf0015;" 
d="M320 149q32 0 70 -9q43 -11 69 -29q32 -21 32 -47v-43h-342v43q0 26 32 47q26 18 69 29q38 9 70 9zM320 192q-35 0 -60 25t-25 60.5t25 60.5t60 25t60 -25t25 -60.5t-25 -60.5t-60 -25zM107 243l45 46l30 -30l-45 -46l45 -45l-30 -30l-45 45l-46 -45l-30 30l46 45l-46 46
l30 30z" />
    <glyph glyph-name="account-search" unicode="&#xf0016;" 
d="M331 192q40 0 68 -28t28 -68q0 -28 -15 -51l66 -66l-30 -30l-67 66q-23 -15 -50 -15q-40 0 -68 28t-28 68t28 68t68 28zM331 149q-22 0 -38 -15.5t-16 -37.5t16 -37.5t38 -15.5t37.5 15.5t15.5 37.5t-15.5 37.5t-37.5 15.5zM213 363q36 0 61 -25t25 -61q0 -28 -18 -52
q-27 -10 -48 -31l-20 -2q-35 0 -60 25t-25 60.5t25 60.5t60 25zM43 21v43q0 22 21 41t58 31t81 13q-11 -26 -11 -53q0 -40 21 -75h-170z" />
    <glyph glyph-name="account-star" unicode="&#xf0017;" 
d="M320 149q-32 0 -70 -9q-43 -11 -69 -29q-32 -21 -32 -47v-43h342v43q0 26 -32 47q-26 18 -69 29q-38 9 -70 9zM320 192q35 0 60 25t25 60.5t-25 60.5t-60 25t-60 -25t-25 -60.5t25 -60.5t60 -25zM107 165l52 -32l-14 60l47 40l-62 5l-23 57l-24 -57l-62 -5l47 -40
l-15 -60z" />
    <glyph glyph-name="orbit" unicode="&#xf0018;" 
d="M173 411q38 16 83 16q64 0 118 -31.5t85.5 -85.5t31.5 -118t-31.5 -118t-85.5 -85.5t-118 -31.5t-118 31.5t-85.5 85.5t-31.5 118q0 44 16 84q15 -16 37 -24q-10 -29 -10 -60q0 -52 26 -96t70 -70t96 -26t96 26t70 70t26 96t-26 96t-70 70t-96 26q-31 0 -60 -10
q-8 22 -23 37zM105 385q18 0 30.5 -12t12.5 -30t-12.5 -30.5t-30.5 -12.5t-30 12.5t-12 30.5t12 30t30 12zM256 299q29 0 53.5 -14.5t39 -39t14.5 -53.5t-14.5 -53.5t-39 -39t-53.5 -14.5t-53.5 14.5t-39 39t-14.5 53.5t14.5 53.5t39 39t53.5 14.5z" />
    <glyph glyph-name="account-switch" unicode="&#xf0019;" 
d="M341 256q36 0 63 -9q22 -7 38 -21q12 -11 19 -25q5 -11 7 -21l1 -9v-43h-128v43l-1 10q-1 13 -6 26q-6 18 -17 32q-5 6 -13 14q19 3 37 3zM43 171q0 4 1 9q2 10 7 21q7 14 19 25q16 14 38 21q27 9 63 9t62 -9q23 -7 38 -21q12 -11 19 -25q6 -11 8 -21l1 -9v-43h-256v43z
M192 85v-42h128v42l64 -64l-64 -64v43h-128v-43l-64 64zM171 427q-27 0 -45.5 -19t-18.5 -45.5t18.5 -45t45 -18.5t45.5 18.5t19 45t-19 45.5t-45 19zM341 427q-26 0 -45 -19t-19 -45.5t19 -45t45.5 -18.5t45 18.5t18.5 45t-18.5 45.5t-45.5 19z" />
    <glyph glyph-name="adjust" unicode="&#xf001a;" 
d="M256 405q-42 0 -81.5 -16t-69.5 -46t-46 -69.5t-16 -81.5t16 -81.5t46 -69.5t69.5 -46t81.5 -16t81.5 16t69.5 46t46 69.5t16 81.5t-16 81.5t-46 69.5t-69.5 46t-81.5 16zM256 21q-46 0 -85.5 23t-62.5 62.5t-23 85.5t23 85.5t62.5 62.5t85.5 23t85.5 -23t62.5 -62.5
t23 -85.5t-23 -85.5t-62.5 -62.5t-85.5 -23zM320 192q0 -27 -18.5 -45.5t-45.5 -18.5t-45.5 18.5t-18.5 45.5t18.5 45.5t45.5 18.5t45.5 -18.5t18.5 -45.5z" />
    <glyph glyph-name="air-conditioner" unicode="&#xf001b;" 
d="M141 434q24 19 48.5 12.5t43 -32t24.5 -62.5q14 0 26 -7q22 25 17.5 49t9 40.5t34.5 13.5q25 -4 47 -34q19 -24 13 -48.5t-32 -43t-63 -24.5q0 -14 -7 -26q26 -22 49.5 -17.5t40 -9t13.5 -34.5q-4 -25 -34 -48q-24 -18 -48.5 -12t-43 32t-24.5 62q-13 0 -26 8
q-22 -26 -17.5 -49.5t-9 -40t-34.5 -13.5q-25 3 -47 33q-19 24 -13 49t32 43t63 24q0 14 7 27q-26 21 -49.5 16.5t-40 9t-13.5 34.5q4 25 34 48zM107 107h42q18 0 30.5 -12.5t12.5 -30.5v-128h-43v43h-42v-43h-43v128q0 18 12.5 30.5t30.5 12.5zM107 64v-43h42v43h-42z
M276 107h44l-63 -171h-44zM384 107h64v-43h-64v-85h64v-43h-64q-18 0 -30.5 12.5t-12.5 30.5v85q0 18 12.5 30.5t30.5 12.5z" />
    <glyph glyph-name="airballoon" unicode="&#xf001c;" 
d="M235 -43q-18 0 -30.5 12.5t-12.5 30.5v43h128v-43q0 -18 -12.5 -30.5t-30.5 -12.5h-42zM256 427q22 0 44 -6q19 -25 30 -69t11 -96q0 -34 -5 -72q-5 -31 -16 -77q0 -18 -12.5 -30.5t-30.5 -12.5h-42q-18 0 -30.5 12.5t-12.5 30.5q-11 46 -16 77q-5 38 -5 72q0 52 11 96
t30 69q22 6 44 6zM427 277q0 -34 -12.5 -75t-34.5 -73q-23 -35 -50 -48q15 28 24 79q9 49 9 96q0 45 -9 84.5t-24 69.5q47 -23 70 -51q27 -34 27 -82zM85 277q0 48 27 82q23 28 70 51q-15 -30 -24 -69.5t-9 -84.5q0 -47 9 -96q9 -51 24 -79q-27 13 -50 48q-22 32 -34.5 73
t-12.5 75z" />
    <glyph glyph-name="airplane" unicode="&#xf001d;" 
d="M439 365q9 -10 9 -23t-9 -23l-83 -83l45 -196l-30 -30l-83 159l-83 -84l7 -52l-22 -23l-38 68l-68 38l23 23l53 -8l83 82l-159 84l30 30l196 -45l83 83q9 9 23 9t23 -9z" />
    <glyph glyph-name="airplane-off" unicode="&#xf001e;" 
d="M445 -37l-61 60l-13 -13l-30 56l-78 78l-58 -59l7 -52l-22 -23l-38 68l-68 38l23 23l53 -8l58 58l-77 78l-57 30l13 13l-73 74l27 27l421 -421zM356 236l83 83q9 10 9 23t-9.5 22.5t-23 9.5t-22.5 -9l-83 -83l-98 22l166 -166z" />
    <glyph glyph-name="cast-variant" unicode="&#xf001f;" 
d="M128 -21h256l-128 128zM448 384h-384q-18 0 -30.5 -12.5t-12.5 -30.5v-256q0 -17 12.5 -29.5t30.5 -12.5h85v42h-85v256h384v-256h-85v-42h85q18 0 30.5 12.5t12.5 29.5v256q0 18 -12.5 30.5t-30.5 12.5z" />
    <glyph glyph-name="alarm" unicode="&#xf0020;" 
d="M256 21q-41 0 -75 20.5t-54 54.5t-20 74.5t20 75t54 54.5t75 20t75 -20t54 -54.5t20 -75t-20 -74.5t-54 -54.5t-75 -20.5zM256 363q-52 0 -96 -26t-70 -70t-26 -96t26 -96.5t70 -70t96 -25.5t96 25.5t70 70t26 96.5t-26 96t-70 70t-96 26zM267 277h-32v-128l101 -60
l16 26l-85 50v112zM168 376l-27 32l-98 -82l27 -32zM469 326l-98 82l-27 -32l98 -83z" />
    <glyph glyph-name="alarm-check" unicode="&#xf0021;" 
d="M225 138l-46 45l-22 -22l68 -68l128 128l-23 23zM256 21q-41 0 -75 20.5t-54 54.5t-20 74.5t20 75t54 54.5t75 20t75 -20t54 -54.5t20 -75t-20 -74.5t-54 -54.5t-75 -20.5zM256 363q-52 0 -96 -26t-70 -70t-26 -96t26 -96.5t70 -70t96 -25.5t96 25.5t70 70t26 96.5
t-26 96t-70 70t-96 26zM168 376l-27 32l-98 -82l27 -32zM469 326l-98 82l-27 -32l98 -83z" />
    <glyph glyph-name="alarm-multiple" unicode="&#xf0022;" 
d="M198 379l-88 -74l-25 29l89 74zM469 334l-24 -30l-89 75l25 29zM277 363q47 0 86 -23t62 -62.5t23 -85.5t-23 -85.5t-62 -62.5t-85.5 -23t-85.5 23t-62 62.5t-23 85.5t23 85.5t62 62.5t85 23zM277 320q-25 0 -48.5 -9.5t-41.5 -27.5t-28 -42t-10 -49t10 -49t28 -42
t41.5 -27.5t48.5 -9.5q35 0 64.5 17t46.5 46.5t17 64.5t-17 64.5t-46.5 46.5t-64.5 17zM256 288h32v-97l69 -31l-14 -29l-87 40v117zM21 149q0 40 16.5 74t45.5 58q-19 -43 -19 -89l1 -24l-1 -19q0 -36 18.5 -66t48.5 -46q44 -41 101 -54q-20 -4 -40 -4q-46 0 -85.5 23
t-62.5 62t-23 85z" />
    <glyph glyph-name="alarm-off" unicode="&#xf0023;" 
d="M171 378l-30 30l-19 -15l31 -30zM351 56q-41 -35 -95 -35q-41 0 -75 20.5t-54 54.5t-20 75q0 53 34 95zM62 399l-27 -27l29 -29l-24 -19l30 -31l24 20l17 -17q-22 -25 -34.5 -57.5t-12.5 -67.5q0 -52 26 -96.5t70 -70t96 -25.5q35 0 67.5 12t58.5 35l47 -47l27 27z
M469 326l-98 82l-27 -32l98 -83zM256 320q41 0 75 -20t54 -54.5t20 -74.5q0 -26 -9 -52l33 -32q19 40 19 84q0 52 -26 96t-70 70t-96 26q-44 0 -84 -20l33 -32q25 9 51 9z" />
    <glyph glyph-name="alarm-plus" unicode="&#xf0024;" 
d="M277 256h-42v-64h-64v-43h64v-64h42v64h64v43h-64v64zM256 21q-41 0 -75 20.5t-54 54.5t-20 74.5t20 75t54 54.5t75 20t75 -20t54 -54.5t20 -75t-20 -74.5t-54 -54.5t-75 -20.5zM256 363q-52 0 -96 -26t-70 -70t-26 -96t26 -96.5t70 -70t96 -25.5t96 25.5t70 70t26 96.5
t-26 96t-70 70t-96 26zM469 326l-98 82l-27 -32l98 -83zM168 376l-27 32l-98 -82l27 -32z" />
    <glyph glyph-name="album" unicode="&#xf0025;" 
d="M256 213q-9 0 -15 -6t-6 -15t6 -15t15 -6t15 6t6 15t-6 15t-15 6zM256 96q-40 0 -68 28t-28 68t28 68t68 28t68 -28t28 -68t-28 -68t-68 -28zM256 405q-42 0 -81.5 -16t-69.5 -46t-46 -69.5t-16 -81.5t16 -81.5t46 -69.5t69.5 -46t81.5 -16t81.5 16t69.5 46t46 69.5
t16 81.5t-16 81.5t-46 69.5t-69.5 46t-81.5 16z" />
    <glyph glyph-name="alert" unicode="&#xf0026;" 
d="M277 149h-42v107h42v-107zM277 64h-42v43h42v-43zM21 0h470l-235 405z" />
    <glyph glyph-name="alert-box" unicode="&#xf0027;" 
d="M107 384h298q18 0 30.5 -12.5t12.5 -30.5v-298q0 -18 -12.5 -30.5t-30.5 -12.5h-298q-18 0 -30.5 12.5t-12.5 30.5v298q0 18 12.5 30.5t30.5 12.5zM277 171v128h-42v-128h42zM277 85v43h-42v-43h42z" />
    <glyph glyph-name="alert-circle" unicode="&#xf0028;" 
d="M277 171h-42v128h42v-128zM277 85h-42v43h42v-43zM256 405q-42 0 -81.5 -16t-69.5 -46t-46 -69.5t-16 -81.5t16 -81.5t46 -69.5t69.5 -46t81.5 -16t81.5 16t69.5 46t46 69.5t16 81.5t-16 81.5t-46 69.5t-69.5 46t-81.5 16z" />
    <glyph glyph-name="alert-octagon" unicode="&#xf0029;" 
d="M277 171h-42v128h42v-128zM235 128h42v-43h-42v43zM336 384h-160l-112 -112v-160l112 -112h160l112 112v160z" />
    <glyph glyph-name="alert-outline" unicode="&#xf002a;" 
d="M256 405l-235 -405h470zM256 320l161 -277h-322zM235 235v-86h42v86h-42zM235 107v-43h42v43h-42z" />
    <glyph glyph-name="alpha" unicode="&#xf002b;" 
d="M386 68q-15 -4 -27 -4q-38 0 -51 57h-1q-32 -61 -88 -61q-42 0 -67.5 31.5t-25.5 79.5q0 55 28.5 90t77.5 35q27 0 47.5 -14.5t31.5 -41.5v0l16 52h54l-45 -114q7 -40 15.5 -54.5t21.5 -14.5q7 0 13 3v-44zM295 180q-7 36 -21.5 55.5t-34.5 19.5q-27 0 -42.5 -23
t-15.5 -58q0 -32 13.5 -53t36.5 -21q19 0 35 18t26 54z" />
    <glyph glyph-name="alphabetical" unicode="&#xf002c;" 
d="M128 213q18 0 30.5 -12.5t12.5 -29.5v-86h-86q-17 0 -29.5 12.5t-12.5 30.5v43q0 17 12.5 29.5t29.5 12.5h43zM85 171v-43h43v43h-43zM427 171v-43h42v-43h-42q-18 0 -30.5 12.5t-12.5 30.5v43q0 17 12.5 29.5t30.5 12.5h42v-42h-42zM256 299v-86h43q17 0 29.5 -12.5
t12.5 -29.5v-43q0 -18 -12.5 -30.5t-29.5 -12.5h-43q-18 0 -30.5 12.5t-12.5 30.5v171h43zM256 128h43v43h-43v-43z" />
    <glyph glyph-name="greenhouse" unicode="&#xf002d;" 
d="M256 384l-171 -128v-256h342v256zM213 235h86v-192h-86v192zM341 235h43v-64h-43v64zM327 277h-142l71 54zM171 235v-64h-43v64h43zM128 128h43v-85h-43v85zM341 43v85h43v-85h-43z" />
    <glyph glyph-name="rollerblade-off" unicode="&#xf002e;" 
d="M445 -37l-12 11q-16 -17 -38 -17t-38 16t-16 38t17 38l-36 36h-258v258l-40 41l27 27l421 -421zM416 172q-11 24 -42 39q-19 8 -58 18l-19 5q-14 0 -28 13l158 -157v7q0 29 -2 42q-2 22 -9 33zM196 320l22 -21h27v21h-49zM268 248q-13 13 -16 29h-13zM245 64
q-22 0 -37.5 -15.5t-15.5 -37.5t15.5 -38t37.5 -16t38 16t16 38t-16 37.5t-38 15.5zM192 341h53v64h-134l70 -70q4 6 11 6zM96 64q-22 0 -37.5 -15.5t-15.5 -37.5t15.5 -38t37.5 -16t37.5 16t15.5 38t-15.5 37.5t-37.5 15.5z" />
    <glyph glyph-name="ambulance" unicode="&#xf002f;" 
d="M384 53q13 0 22.5 9.5t9.5 23t-9.5 22.5t-22.5 9t-22.5 -9t-9.5 -22.5t9.5 -23t22.5 -9.5zM416 245h-53v-53h95zM128 53q13 0 22.5 9.5t9.5 23t-9.5 22.5t-22.5 9t-22.5 -9t-9.5 -22.5t9.5 -23t22.5 -9.5zM427 277l64 -85v-107h-43q0 -26 -18.5 -45t-45.5 -19t-45.5 19
t-18.5 45h-128q0 -26 -18.5 -45t-45.5 -19t-45.5 19t-18.5 45h-43v235q0 18 12.5 30.5t30.5 12.5h299v-86h64zM171 320v-64h-64v-43h64v-64h42v64h64v43h-64v64h-42z" />
    <glyph glyph-name="amplifier" unicode="&#xf0030;" 
d="M213 405h86q9 0 15 -6t6 -15h128v-384h-43q0 -9 -6 -15t-15 -6t-15 6t-6 15h-214q0 -9 -6 -15t-15 -6t-15 6t-6 15h-43v384h128q0 9 6 15t15 6zM107 341v-85h298v85h-298zM149 320q9 0 15.5 -6t6.5 -15t-6.5 -15.5t-15.5 -6.5t-15 6.5t-6 15.5t6 15t15 6zM256 320h43v-21
h-43v21zM320 320h21v-43h-21v43zM363 320h21v-43h-21v43zM256 213q-35 0 -60 -25t-25 -60t25 -60t60 -25t60 25t25 60t-25 60t-60 25zM213 320q9 0 15.5 -6t6.5 -15t-6.5 -15.5t-15.5 -6.5t-15 6.5t-6 15.5t6 15t15 6z" />
    <glyph glyph-name="anchor" unicode="&#xf0031;" 
d="M256 405q-27 0 -45.5 -18.5t-18.5 -45.5q0 -20 11.5 -36.5t31.5 -23.5v-25h-64v-43h64v-190q-26 5 -47 14q-24 10 -42.5 25t-29.5 33l33 33l-85 64v-64q0 -31 18 -58.5t46 -47.5t62 -31.5t66 -11.5t66 11.5t62.5 31.5t46 47.5t17.5 58.5v64l-85 -64l33 -33
q-11 -18 -29.5 -33t-42.5 -25q-21 -9 -47 -14v190h64v43h-64v25q19 7 31 23.5t12 36.5q0 27 -18.5 45.5t-45.5 18.5zM256 363q9 0 15 -6.5t6 -15.5t-6 -15t-15 -6t-15 6t-6 15t6 15.5t15 6.5z" />
    <glyph glyph-name="android" unicode="&#xf0032;" 
d="M354 125q-7 0 -12.5 5t-5.5 12.5t5.5 12.5t12.5 5v0q8 0 13 -5t5 -12.5t-5 -12.5t-13 -5zM158 125q-7 0 -12.5 5t-5.5 12.5t5.5 12.5t12.5 5v0q7 0 12.5 -5t5.5 -12.5t-5.5 -12.5t-12.5 -5zM361 232l35 61q2 3 1 6t-3.5 4.5t-5.5 0.5t-4 -4l-36 -62q-44 20 -92.5 20
t-90.5 -19l-36 62q-2 2 -4.5 3t-5.5 -0.5t-3.5 -4.5t0.5 -6l35 -61q-46 -25 -75 -69.5t-33 -98.5h426q-4 54 -33 98t-75 70v0z" />
    <glyph glyph-name="web-plus" unicode="&#xf0033;" 
d="M352 192q0 18 -3 43h72q6 -23 6 -43q0 -11 -2 -23q22 -3 41 -14q3 19 3 37q0 58 -28.5 107t-77.5 77.5t-107 28.5t-107 -28.5t-77.5 -77.5t-28.5 -107t28.5 -107t77.5 -77.5t107 -28.5q18 0 37 3q-16 28 -16 61q0 7 2 18q-11 -22 -23 -39q-28 41 -41 85h80q19 34 55 51
q2 19 2 34zM256 362q28 -41 41 -85h-82q13 44 41 85zM91 149q-6 23 -6 43t6 43h72q-3 -25 -3 -43t3 -43h-72zM108 107h63q12 -43 30 -76q-30 10 -53.5 29.5t-39.5 46.5zM171 277h-63q16 27 39.5 46.5t53.5 29.5q-18 -33 -30 -76zM306 149h-100q-3 23 -3 43t3 43h100
q3 -25 3 -43t-3 -43zM311 353q30 -10 53.5 -29.5t39.5 -46.5h-63q-11 41 -30 76zM491 64v-43h-64v-64h-43v64h-64v43h64v64h43v-64h64z" />
    <glyph glyph-name="android-studio" unicode="&#xf0034;" 
d="M235 405h42v-42h11q13 0 22.5 -9.5t9.5 -22.5v-75l-9 -9l35 -61q18 18 28 41.5t10 49.5h43q0 -38 -16 -71.5t-43 -57.5l67 -116l2 -47l-40 26l-65 113q-35 -17 -76 -17t-76 17l-65 -113l-40 -26l2 47l124 215l-9 9v75q0 13 9.5 22.5t22.5 9.5h11v42zM201 161
q26 -12 55 -12t55 12l-32 54q-10 -9 -23 -9t-23 9zM256 320q-9 0 -15 -6t-6 -15t6 -15.5t15 -6.5t15 6.5t6 15.5t-6 15t-15 6z" />
    <glyph glyph-name="apple" unicode="&#xf0035;" 
d="M399 32q-17 -25 -28 -36q-18 -16 -37 -17q-14 0 -34 8.5t-36 8.5q-12 0 -22 -3q-6 -2 -17 -6q-18 -8 -31 -8q-18 -1 -37 17q-12 11 -30 37q-19 28 -31 64q-14 40 -14 78q1 42 18 73q14 24 37.5 38.5t50.5 14.5q16 0 44 -11q19 -7 26 -7t25 7t27 9q16 4 30 3q18 -1 34 -8
q27 -10 43 -34v0q-14 -9 -25 -22q-21 -27 -21 -59q1 -29 15 -51q11 -16 28 -28q9 -6 15 -8l-1 -1q-11 -32 -29 -59zM277 373q12 14 29.5 23t33.5 9q2 -18 -4 -36t-18 -32t-29 -22.5t-34 -7.5q-2 17 5 36q6 17 17 30z" />
    <glyph glyph-name="apple-finder" unicode="&#xf0036;" 
d="M171 213q-9 0 -15.5 6.5t-6.5 15.5v42q0 9 6.5 15.5t15 6.5t15 -6.5t6.5 -15.5v-42q0 -9 -6.5 -15.5t-14.5 -6.5zM363 235v42q0 9 -6.5 15.5t-15 6.5t-15 -6.5t-6.5 -15.5v-42q0 -9 6.5 -15.5t15 -6.5t15 6.5t6.5 15.5zM469 341v-320q0 -17 -12.5 -29.5t-29.5 -12.5h-342
q-17 0 -29.5 12.5t-12.5 29.5v320q0 18 12.5 30.5t29.5 12.5h342q17 0 29.5 -12.5t12.5 -30.5zM85 21h194q-3 17 -5 44l-18 -1q-50 0 -91 24q-22 14 -32 27q-6 6 -5 15t7.5 14.5t15.5 5t15 -8.5t23 -17q30 -17 67 -17l16 1q-1 26 0 57h-39q-10 0 -17.5 8t-7.5 19v0
q2 27 6 56q8 56 21 93h-150v-320zM427 21v320h-158q-19 -48 -29 -144h39q10 0 17.5 -7.5t7.5 -18.5v-1q-1 -27 0 -55q27 10 42 27v0q6 7 14.5 8t15.5 -5t8 -14.5t-5 -15.5v0q-7 -9 -20 -18q-24 -18 -54 -26q3 -30 6 -50h116z" />
    <glyph glyph-name="apple-ios" unicode="&#xf0037;" 
d="M45 90h35v150h-35v-150zM62 259q9 0 14.5 6t5.5 14t-5.5 13.5t-14 5.5t-14 -5.5t-5.5 -13.5t5.5 -14t13.5 -6zM197 297q-44 0 -70.5 -28t-26.5 -77t26.5 -77.5t71 -28.5t70.5 28.5t26 77.5t-26 77t-71 28zM197 267q28 0 44 -20.5t16 -54.5t-16 -54.5t-43.5 -20.5
t-43.5 20.5t-16 54.5t16 54.5t43 20.5zM309 147q1 -28 22.5 -44.5t58 -16.5t58 17t21.5 46q0 23 -14 36.5t-45 21.5l-23 5q-19 4 -27.5 10.5t-8.5 16.5q0 13 11 21t28.5 8t28.5 -8.5t12 -22.5h35q-1 27 -21.5 43.5t-54 16.5t-55 -16.5t-21.5 -43.5q0 -44 56 -56l26 -6
q20 -5 28 -12t8 -19t-11.5 -20t-30 -8t-31.5 8.5t-14 22.5h-36z" />
    <glyph glyph-name="apple-icloud" unicode="&#xf0038;" 
d="M469 127q0 -35 -24.5 -59.5t-59.5 -24.5h-258q-35 0 -59.5 24.5t-24.5 59.5q0 31 20 55t50 28q-1 4 -1 10q0 22 16 37.5t38 15.5q19 0 34 -13q15 35 32 50q25 22 65 22q51 0 80 -35q26 -32 26 -80l-1 -7q29 -6 48 -29.5t19 -53.5z" />
    <glyph glyph-name="apple-safari" unicode="&#xf0039;" 
d="M256 405q42 0 81.5 -16t69.5 -46t46 -69.5t16 -81.5t-16 -81.5t-46 -69.5t-69.5 -46t-81.5 -16t-81.5 16t-69.5 46t-46 69.5t-16 81.5t16 81.5t46 69.5t69.5 46t81.5 16zM256 363q-46 0 -85.5 -23t-62.5 -62.5t-23 -85.5q0 -33 12 -62.5t33 -52.5l81 160l160 81
q-23 21 -52.5 33t-62.5 12zM256 21q46 0 85.5 23t62.5 62.5t23 85.5q0 33 -12 62.5t-33 52.5l-81 -160l-160 -81q23 -21 52.5 -33t62.5 -12zM256 192l-16 16l-33 -65l65 33zM256 75h21v-32h-21v32zM339 109l15 15l23 -22l-16 -16zM373 192v21h32v-21h-32zM256 309h-21v32h21
v-32zM173 275l-15 -15l-23 22l16 16zM139 192v-21h-32v21h32z" />
    <glyph glyph-name="font-awesome" unicode="&#xf003a;" 
d="M422 405h-332q-19 0 -33 -14t-14 -33v-332q0 -19 14 -33t33 -14h332q19 0 33 14t14 33v332q0 19 -14 33t-33 14zM378 135q0 -5 -7 -8q-30 -13 -51 -13q-12 0 -31 8q-22 8 -38 8q-28 0 -64 -17l-3 -1v-43q0 -3 -1 -4v-2q-2 -6 -7 -9.5t-12 -3.5t-13 5.5t-6 13.5v208
q-12 10 -12 24.5t9.5 23.5t22.5 9t22.5 -9t9.5 -23q0 -15 -13 -25v-17l5 2q33 14 59 14q15 0 30 -4q11 -3 28 -9q6 -3 13 -3q14 0 40 12q9 4 11.5 4t5 -2.5t2.5 -5.5v-133z" />
    <glyph glyph-name="apps" unicode="&#xf003b;" 
d="M341 21h86v86h-86v-86zM341 149h86v86h-86v-86zM213 277h86v86h-86v-86zM341 277h86v86h-86v-86zM213 149h86v86h-86v-86zM85 149h86v86h-86v-86zM85 21h86v86h-86v-86zM213 21h86v86h-86v-86zM85 277h86v86h-86v-86z" />
    <glyph glyph-name="archive" unicode="&#xf003c;" 
d="M64 384h384v-85h-384v85zM85 277h342v-277h-342v277zM203 213q-5 0 -8 -3t-3 -7v-32h128v32q0 4 -3 7t-8 3h-106z" />
    <glyph glyph-name="arrange-bring-forward" unicode="&#xf003d;" 
d="M43 405h298v-298h-298v298zM469 277v-298h-298v85h42v-43h214v214h-43v42h85z" />
    <glyph glyph-name="arrange-bring-to-front" unicode="&#xf003e;" 
d="M43 405h192v-85h-43v43h-107v-107h43v-43h-85v192zM469 171v-192h-192v85h43v-43h107v107h-43v43h85zM171 277h170v-170h-170v170z" />
    <glyph glyph-name="arrange-send-backward" unicode="&#xf003f;" 
d="M43 405h298v-298h-298v298zM469 277v-298h-298v85h213v213h85zM85 363v-214h214v214h-214z" />
    <glyph glyph-name="arrange-send-to-back" unicode="&#xf0040;" 
d="M43 405h192v-192h-192v192zM192 363h-107v-107h107v107zM469 171v-192h-192v192h192zM320 21h107v107h-107v-107zM341 277v-64h-64v64h64zM235 107h-64v64h64v-64z" />
    <glyph glyph-name="arrow-all" unicode="&#xf0041;" 
d="M277 213h107l-32 32l30 31l84 -84l-84 -84l-30 31l32 32h-107v-107l32 32l31 -30l-84 -84l-84 84l31 30l32 -32v107h-107l32 -32l-30 -31l-84 84l84 84l30 -31l-32 -32h107v107l-32 -32l-31 30l84 84l84 -84l-31 -30l-32 32v-107z" />
    <glyph glyph-name="arrow-bottom-left" unicode="&#xf0042;" 
d="M405 311l-30 30l-226 -226v141h-42v-213h213v42h-141z" />
    <glyph glyph-name="arrow-bottom-right" unicode="&#xf0043;" 
d="M107 311l30 30l226 -226v141h42v-213h-213v42h141z" />
    <glyph glyph-name="arrow-collapse-all" unicode="&#xf0044;" 
d="M416 382l30 -30l-96 -96h77v-43h-150v150h43v-77zM446 32l-30 -30l-96 96v-77h-43v150h150v-43h-77zM96 382l96 -96v77h43v-150h-150v43h77l-96 96zM66 32l96 96h-77v43h150v-150h-43v77l-96 -96z" />
    <glyph glyph-name="arrow-down" unicode="&#xf0045;" 
d="M235 363h42v-256l118 117l30 -30l-169 -169l-169 169l30 30l118 -117v256z" />
    <glyph glyph-name="arrow-down-thick" unicode="&#xf0046;" 
d="M213 363h86v-192l74 74l52 -51l-169 -169l-169 169l52 51l74 -74v192z" />
    <glyph glyph-name="arrow-down-bold-circle" unicode="&#xf0047;" 
d="M256 405q42 0 81.5 -16t69.5 -46t46 -69.5t16 -81.5t-16 -81.5t-46 -69.5t-69.5 -46t-81.5 -16t-81.5 16t-69.5 46t-46 69.5t-16 81.5t16 81.5t46 69.5t69.5 46t81.5 16zM256 85l107 107h-64v85h-86v-85h-64z" />
    <glyph glyph-name="arrow-down-bold-circle-outline" unicode="&#xf0048;" 
d="M256 85l-107 107h64v85h86v-85h64zM256 405q42 0 81.5 -16t69.5 -46t46 -69.5t16 -81.5t-16 -81.5t-46 -69.5t-69.5 -46t-81.5 -16t-81.5 16t-69.5 46t-46 69.5t-16 81.5t16 81.5t46 69.5t69.5 46t81.5 16zM256 363q-46 0 -85.5 -23t-62.5 -62.5t-23 -85.5t23 -85.5
t62.5 -62.5t85.5 -23t85.5 23t62.5 62.5t23 85.5t-23 85.5t-62.5 62.5t-85.5 23z" />
    <glyph glyph-name="arrow-down-bold-hexagon-outline" unicode="&#xf0049;" 
d="M256 85l-107 107h64v85h86v-85h64zM448 96q0 -13 -11 -19l-169 -94q-5 -4 -12 -4t-12 4l-169 94q-11 6 -11 19v192q0 13 11 19l169 94q5 4 12 4t12 -4l169 -94q11 -6 11 -19v-192zM256 359l-149 -84v-166l149 -84l149 84v166z" />
    <glyph glyph-name="arrow-down-drop-circle" unicode="&#xf004a;" 
d="M256 405q42 0 81.5 -16t69.5 -46t46 -69.5t16 -81.5t-16 -81.5t-46 -69.5t-69.5 -46t-81.5 -16t-81.5 16t-69.5 46t-46 69.5t-16 81.5t16 81.5t46 69.5t69.5 46t81.5 16zM149 235l107 -107l107 107h-214z" />
    <glyph glyph-name="arrow-down-drop-circle-outline" unicode="&#xf004b;" 
d="M256 405q-42 0 -81.5 -16t-69.5 -46t-46 -69.5t-16 -81.5t16 -81.5t46 -69.5t69.5 -46t81.5 -16t81.5 16t69.5 46t46 69.5t16 81.5t-16 81.5t-46 69.5t-69.5 46t-81.5 16zM256 363q46 0 85.5 -23t62.5 -62.5t23 -85.5t-23 -85.5t-62.5 -62.5t-85.5 -23t-85.5 23
t-62.5 62.5t-23 85.5t23 85.5t62.5 62.5t85.5 23zM149 235l107 -107l107 107h-214z" />
    <glyph glyph-name="arrow-expand-all" unicode="&#xf004c;" 
d="M203 169l30 -30l-96 -96h76v-43h-149v149h43v-76zM233 245l-30 -30l-96 96v-76h-43v149h149v-43h-76zM309 169l96 -96v76h43v-149h-149v43h76l-96 96zM279 245l96 96h-76v43h149v-149h-43v76l-96 -96z" />
    <glyph glyph-name="arrow-left" unicode="&#xf004d;" 
d="M427 213v-42h-256l117 -118l-30 -30l-169 169l169 169l30 -30l-117 -118h256z" />
    <glyph glyph-name="arrow-left-thick" unicode="&#xf004e;" 
d="M427 235v-86h-192l74 -74l-51 -52l-169 169l169 169l51 -52l-74 -74h192z" />
    <glyph glyph-name="arrow-left-bold-circle" unicode="&#xf004f;" 
d="M469 192q0 -42 -16 -81.5t-46 -69.5t-69.5 -46t-81.5 -16t-81.5 16t-69.5 46t-46 69.5t-16 81.5t16 81.5t46 69.5t69.5 46t81.5 16t81.5 -16t69.5 -46t46 -69.5t16 -81.5zM149 192l107 -107v64h85v86h-85v64z" />
    <glyph glyph-name="arrow-left-bold-circle-outline" unicode="&#xf0050;" 
d="M149 192l107 107v-64h85v-86h-85v-64zM469 192q0 -42 -16 -81.5t-46 -69.5t-69.5 -46t-81.5 -16t-81.5 16t-69.5 46t-46 69.5t-16 81.5t16 81.5t46 69.5t69.5 46t81.5 16t81.5 -16t69.5 -46t46 -69.5t16 -81.5zM427 192q0 46 -23 85.5t-62.5 62.5t-85.5 23t-85.5 -23
t-62.5 -62.5t-23 -85.5t23 -85.5t62.5 -62.5t85.5 -23t85.5 23t62.5 62.5t23 85.5z" />
    <glyph glyph-name="arrow-left-bold-hexagon-outline" unicode="&#xf0051;" 
d="M149 192l107 107v-64h85v-86h-85v-64zM448 96q0 -13 -11 -19l-169 -94q-5 -4 -12 -4t-12 4l-169 94q-11 6 -11 19v192q0 13 11 19l169 94q5 4 12 4t12 -4l169 -94q11 -6 11 -19v-192zM256 359l-149 -84v-166l149 -84l149 84v166z" />
    <glyph glyph-name="arrow-left-drop-circle" unicode="&#xf0052;" 
d="M469 192q0 -42 -16 -81.5t-46 -69.5t-69.5 -46t-81.5 -16t-81.5 16t-69.5 46t-46 69.5t-16 81.5t16 81.5t46 69.5t69.5 46t81.5 16t81.5 -16t69.5 -46t46 -69.5t16 -81.5zM299 299l-107 -107l107 -107v214z" />
    <glyph glyph-name="arrow-left-drop-circle-outline" unicode="&#xf0053;" 
d="M469 192q0 42 -16 81.5t-46 69.5t-69.5 46t-81.5 16t-81.5 -16t-69.5 -46t-46 -69.5t-16 -81.5t16 -81.5t46 -69.5t69.5 -46t81.5 -16t81.5 16t69.5 46t46 69.5t16 81.5zM427 192q0 -46 -23 -85.5t-62.5 -62.5t-85.5 -23t-85.5 23t-62.5 62.5t-23 85.5t23 85.5t62.5 62.5
t85.5 23t85.5 -23t62.5 -62.5t23 -85.5zM299 299l-107 -107l107 -107v214z" />
    <glyph glyph-name="arrow-right" unicode="&#xf0054;" 
d="M85 213v-42h256l-117 -118l30 -30l169 169l-169 169l-30 -30l117 -118h-256z" />
    <glyph glyph-name="arrow-right-thick" unicode="&#xf0055;" 
d="M85 235v-86h192l-74 -74l51 -52l169 169l-169 169l-51 -52l74 -74h-192z" />
    <glyph glyph-name="arrow-right-bold-circle" unicode="&#xf0056;" 
d="M43 192q0 42 16 81.5t46 69.5t69.5 46t81.5 16t81.5 -16t69.5 -46t46 -69.5t16 -81.5t-16 -81.5t-46 -69.5t-69.5 -46t-81.5 -16t-81.5 16t-69.5 46t-46 69.5t-16 81.5zM363 192l-107 107v-64h-85v-86h85v-64z" />
    <glyph glyph-name="arrow-right-bold-circle-outline" unicode="&#xf0057;" 
d="M363 192l-107 -107v64h-85v86h85v64zM43 192q0 42 16 81.5t46 69.5t69.5 46t81.5 16t81.5 -16t69.5 -46t46 -69.5t16 -81.5t-16 -81.5t-46 -69.5t-69.5 -46t-81.5 -16t-81.5 16t-69.5 46t-46 69.5t-16 81.5zM85 192q0 -46 23 -85.5t62.5 -62.5t85.5 -23t85.5 23
t62.5 62.5t23 85.5t-23 85.5t-62.5 62.5t-85.5 23t-85.5 -23t-62.5 -62.5t-23 -85.5z" />
    <glyph glyph-name="arrow-right-bold-hexagon-outline" unicode="&#xf0058;" 
d="M363 192l-107 -107v64h-85v86h85v64zM448 96q0 -13 -11 -19l-169 -94q-5 -4 -12 -4t-12 4l-169 94q-11 6 -11 19v192q0 13 11 19l169 94q5 4 12 4t12 -4l169 -94q11 -6 11 -19v-192zM256 359l-149 -84v-166l149 -84l149 84v166z" />
    <glyph glyph-name="arrow-right-drop-circle" unicode="&#xf0059;" 
d="M43 192q0 42 16 81.5t46 69.5t69.5 46t81.5 16t81.5 -16t69.5 -46t46 -69.5t16 -81.5t-16 -81.5t-46 -69.5t-69.5 -46t-81.5 -16t-81.5 16t-69.5 46t-46 69.5t-16 81.5zM213 85l107 107l-107 107v-214z" />
    <glyph glyph-name="arrow-right-drop-circle-outline" unicode="&#xf005a;" 
d="M43 192q0 -42 16 -81.5t46 -69.5t69.5 -46t81.5 -16t81.5 16t69.5 46t46 69.5t16 81.5t-16 81.5t-46 69.5t-69.5 46t-81.5 16t-81.5 -16t-69.5 -46t-46 -69.5t-16 -81.5zM85 192q0 46 23 85.5t62.5 62.5t85.5 23t85.5 -23t62.5 -62.5t23 -85.5t-23 -85.5t-62.5 -62.5
t-85.5 -23t-85.5 23t-62.5 62.5t-23 85.5zM213 85l107 107l-107 107v-214z" />
    <glyph glyph-name="arrow-top-left" unicode="&#xf005b;" 
d="M405 73l-30 -30l-226 226v-141h-42v213h213v-42h-141z" />
    <glyph glyph-name="arrow-top-right" unicode="&#xf005c;" 
d="M107 73l226 226h-141v42h213v-213h-42v141l-226 -226z" />
    <glyph glyph-name="arrow-up" unicode="&#xf005d;" 
d="M277 21h-42v256l-118 -117l-30 30l169 169l169 -169l-30 -30l-118 117v-256z" />
    <glyph glyph-name="arrow-up-thick" unicode="&#xf005e;" 
d="M299 21h-86v192l-74 -74l-52 51l169 169l169 -169l-52 -51l-74 74v-192z" />
    <glyph glyph-name="arrow-up-bold-circle" unicode="&#xf005f;" 
d="M256 -21q-42 0 -81.5 16t-69.5 46t-46 69.5t-16 81.5t16 81.5t46 69.5t69.5 46t81.5 16t81.5 -16t69.5 -46t46 -69.5t16 -81.5t-16 -81.5t-46 -69.5t-69.5 -46t-81.5 -16zM256 299l-107 -107h64v-85h86v85h64z" />
    <glyph glyph-name="arrow-up-bold-circle-outline" unicode="&#xf0060;" 
d="M256 299l107 -107h-64v-85h-86v85h-64zM256 -21q-42 0 -81.5 16t-69.5 46t-46 69.5t-16 81.5t16 81.5t46 69.5t69.5 46t81.5 16t81.5 -16t69.5 -46t46 -69.5t16 -81.5t-16 -81.5t-46 -69.5t-69.5 -46t-81.5 -16zM256 21q46 0 85.5 23t62.5 62.5t23 85.5t-23 85.5
t-62.5 62.5t-85.5 23t-85.5 -23t-62.5 -62.5t-23 -85.5t23 -85.5t62.5 -62.5t85.5 -23z" />
    <glyph glyph-name="arrow-up-bold-hexagon-outline" unicode="&#xf0061;" 
d="M256 299l107 -107h-64v-85h-86v85h-64zM448 96q0 -13 -11 -19l-169 -94q-5 -4 -12 -4t-12 4l-169 94q-11 6 -11 19v192q0 13 11 19l169 94q5 4 12 4t12 -4l169 -94q11 -6 11 -19v-192zM256 359l-149 -84v-166l149 -84l149 84v166z" />
    <glyph glyph-name="arrow-up-drop-circle" unicode="&#xf0062;" 
d="M256 -21q-42 0 -81.5 16t-69.5 46t-46 69.5t-16 81.5t16 81.5t46 69.5t69.5 46t81.5 16t81.5 -16t69.5 -46t46 -69.5t16 -81.5t-16 -81.5t-46 -69.5t-69.5 -46t-81.5 -16zM363 149l-107 107l-107 -107h214z" />
    <glyph glyph-name="arrow-up-drop-circle-outline" unicode="&#xf0063;" 
d="M256 -21q42 0 81.5 16t69.5 46t46 69.5t16 81.5t-16 81.5t-46 69.5t-69.5 46t-81.5 16t-81.5 -16t-69.5 -46t-46 -69.5t-16 -81.5t16 -81.5t46 -69.5t69.5 -46t81.5 -16zM256 21q-46 0 -85.5 23t-62.5 62.5t-23 85.5t23 85.5t62.5 62.5t85.5 23t85.5 -23t62.5 -62.5
t23 -85.5t-23 -85.5t-62.5 -62.5t-85.5 -23zM363 149l-107 107l-107 -107h214z" />
    <glyph glyph-name="assistant" unicode="&#xf0064;" 
d="M405 405h-298q-18 0 -30.5 -12.5t-12.5 -29.5v-299q0 -18 12.5 -30.5t30.5 -12.5h85l64 -64l64 64h85q18 0 30.5 12.5t12.5 30.5v299q0 17 -12.5 29.5t-30.5 12.5zM296 173l-40 -88l-40 88l-88 40l88 40l40 88l40 -88l88 -40z" />
    <glyph glyph-name="at" unicode="&#xf0065;" 
d="M256 128q25 0 44.5 19.5t19.5 44.5t-19.5 44.5t-44.5 19.5t-44.5 -19.5t-19.5 -44.5t19.5 -44.5t44.5 -19.5zM256 405q87 0 150 -63t63 -150v-31q0 -31 -21.5 -53.5t-52.5 -22.5q-39 0 -63 32q-32 -32 -75.5 -32t-75.5 32t-32 75t32 75t75 32t75 -32t32 -75v-31
q0 -13 9.5 -23t22.5 -10t22.5 10t9.5 23v31q0 70 -50.5 120.5t-120.5 50.5t-120.5 -50.5t-50.5 -120.5t50.5 -120.5t120.5 -50.5h107v-42h-107q-87 0 -150 63t-63 150t63 150t150 63z" />
    <glyph glyph-name="attachment" unicode="&#xf0066;" 
d="M160 64q-23 0 -44.5 9t-38 25.5t-25.5 38t-9 44.5q0 32 15.5 59t42.5 43t59 16h224q35 0 60 -25t25 -60.5t-25 -60.5t-60 -25h-181q-22 0 -38 15.5t-16 37.5t16 38t38 16h160v-32h-160q-9 0 -15.5 -6.5t-6.5 -15.5t6.5 -15t15.5 -6h181q22 0 37.5 15.5t15.5 37.5
t-15.5 38t-37.5 16h-224q-35 0 -60 -25t-25 -60.5t25 -60.5t60 -25h203v-32h-203z" />
    <glyph glyph-name="book-music" unicode="&#xf0067;" 
d="M277 11q0 -17 6 -32h-155q-18 0 -30.5 12.5t-12.5 29.5v342q0 17 12.5 29.5t30.5 12.5h21v-149l54 32l53 -32v149h128q18 0 30.5 -12.5t12.5 -29.5v-150h-75v-109q-32 -7 -53.5 -33t-21.5 -60zM427 171h-32v-111q-10 4 -22 4q-22 0 -37.5 -15.5t-15.5 -37.5t15.5 -38
t37.5 -16t38 16t16 38v117h42v43h-42z" />
    <glyph glyph-name="auto-fix" unicode="&#xf0068;" 
d="M160 329l-53 -30l30 53l-30 53l53 -30l53 30l-30 -53l30 -53zM416 119l53 30l-30 -53l30 -53l-53 30l-53 -30l30 53l-30 53zM469 405l-30 -53l30 -53l-53 30l-53 -30l30 53l-30 53l53 -30zM285 175l52 52l-46 46l-52 -52zM307 292l49 -49q7 -6 7 -15t-7 -16l-248 -248
q-7 -7 -16 -7t-15 7l-49 49q-7 6 -7 15t7 16l248 248q7 7 16 7t15 -7z" />
    <glyph glyph-name="auto-upload" unicode="&#xf0069;" 
d="M114 178l25 78l24 -78h-49zM117 299l-68 -192h41l15 42h68l15 -42h40l-68 192h-43zM235 21h234v43h-234v-43zM299 107h106v106h64l-117 118l-117 -118h64v-106z" />
    <glyph glyph-name="autorenew" unicode="&#xf006a;" 
d="M256 320v-64l85 85l-85 86v-64q-46 0 -85.5 -23t-62.5 -62.5t-23 -85.5q0 -49 27 -91l31 31q-15 28 -15 60q0 35 17 64.5t46.5 46.5t64.5 17zM400 283l-31 -31q15 -29 15 -60q0 -35 -17 -64.5t-46.5 -46.5t-64.5 -17v64l-85 -85l85 -86v64q46 0 85.5 23t62.5 62.5
t23 85.5q0 49 -27 91z" />
    <glyph glyph-name="av-timer" unicode="&#xf006b;" 
d="M235 85q0 -9 6 -15t15 -6t15 6t6 15t-6 15.5t-15 6.5t-15 -6.5t-6 -15.5zM235 384v-85h42v41q36 -6 65.5 -26.5t46 -52.5t16.5 -69q0 -41 -20 -75t-54 -54t-75 -20t-75 20t-54 54t-20 75q0 53 33 94l116 -115l30 30l-145 145v-1q-36 -26 -56.5 -66.5t-20.5 -86.5
q0 -52 26 -96t70 -70t96 -26t96 26t70 70t26 96t-26 96t-70 70t-96 26h-21zM384 192q0 9 -6 15t-15 6t-15.5 -6t-6.5 -15t6.5 -15t15.5 -6t15 6t6 15zM128 192q0 -9 6 -15t15 -6t15.5 6t6.5 15t-6.5 15t-15.5 6t-15 -6t-6 -15z" />
    <glyph glyph-name="baby" unicode="&#xf006c;" 
d="M395 363q22 0 37.5 -16t15.5 -38t-15.5 -37.5t-37.5 -15.5t-38 15.5t-16 37.5t16 38t38 16zM96 21q-13 0 -22.5 9.5t-9.5 23t9.5 22.5t22.5 9h149q14 0 23 -9t9 -22.5t-9 -23t-23 -9.5h-149zM343 43l-30 85h-78l-91 91l9 8q11 10 24 18q19 12 39 19q25 8 51 8
q42 0 60 -12q10 -7 16 -23l61 -173q4 -12 -1.5 -24t-18 -16.5t-24.5 1t-17 18.5z" />
    <glyph glyph-name="backburger" unicode="&#xf006d;" 
d="M107 171l85 -86l-30 -30l-137 137l137 137l30 -30l-85 -86h341v-42h-341zM448 320v-43h-213v43h213zM448 107v-43h-213v43h213z" />
    <glyph glyph-name="backspace" unicode="&#xf006e;" 
d="M469 384h-320q-21 0 -34 -19l-115 -173l115 -173q13 -19 34 -19h320q18 0 30.5 12.5t12.5 30.5v298q0 18 -12.5 30.5t-30.5 12.5zM405 115l-30 -30l-76 77l-77 -77l-30 30l77 77l-77 77l30 30l77 -77l76 77l30 -30l-76 -77z" />
    <glyph glyph-name="backup-restore" unicode="&#xf006f;" 
d="M256 384q-52 0 -96 -26t-70 -70t-26 -96h-64l85 -85l86 85h-64q0 41 20 75t54 54t75 20t75 -20t54 -54t20 -75t-20 -75t-54 -54t-75 -20q-47 0 -87 27l-30 -30q52 -40 117 -40q52 0 96 26t70 70t26 96t-26 96t-70 70t-96 26zM299 192q0 18 -12.5 30.5t-30.5 12.5
t-30.5 -12.5t-12.5 -30.5t12.5 -30.5t30.5 -12.5t30.5 12.5t12.5 30.5z" />
    <glyph glyph-name="bank" unicode="&#xf0070;" 
d="M245 427l-202 -107v-43h405v43zM341 235v-150h64v150h-64zM43 -21h405v64h-405v-64zM213 235v-150h64v150h-64zM85 235v-150h64v150h-64z" />
    <glyph glyph-name="barcode" unicode="&#xf0071;" 
d="M43 320h42v-256h-42v256zM107 320h21v-256h-21v256zM149 320h64v-256h-64v256zM235 320h21v-256h-21v256zM299 320h42v-256h-42v256zM363 320h64v-256h-64v256zM448 320h21v-256h-21v256z" />
    <glyph glyph-name="barcode-scan" unicode="&#xf0072;" 
d="M85 320h43v-256h-43v256zM149 320h22v-256h-22v256zM192 320h64v-256h-64v256zM277 320h22v-256h-22v256zM341 320h43v-256h-43v256zM405 320h22v-256h-22v256zM43 363v-86h-43v86q0 17 12.5 29.5t30.5 12.5h85v-42h-85zM469 405q18 0 30.5 -12.5t12.5 -29.5v-86h-43v86
h-85v42h85zM43 107v-86h85v-42h-85q-18 0 -30.5 12.5t-12.5 29.5v86h43zM469 21v86h43v-86q0 -17 -12.5 -29.5t-30.5 -12.5h-85v42h85z" />
    <glyph glyph-name="barley" unicode="&#xf0073;" 
d="M156 57q-11 16 -15 39q-2 14 -2 43q35 -21 51 -33q26 -18 38 -35l7 -12v49q-29 17 -45 29q-23 17 -34 32.5t-15 38.5q-2 14 -2 43q35 -21 51 -33q26 -18 38 -35l7 -12v49q-29 17 -45 29q-23 17 -34 32.5t-15 38.5q-2 14 -2 43q35 -21 51 -33q26 -18 38 -35q3 -4 5 -10
q-6 22 -6 39q0 21 9 49q5 16 19 49q15 -31 20 -47q10 -27 10 -48q0 -19 -6 -41l5 9q12 17 38 35q16 12 51 33q0 -29 -2 -43q-4 -23 -15 -38.5t-34 -32.5q-16 -12 -45 -29v-49l7 12q12 17 38 35q16 12 51 33q0 -29 -2 -43q-4 -23 -15 -38.5t-34 -32.5q-16 -12 -45 -29v-49
l7 12q12 17 38 35q16 12 51 33q0 -29 -2 -43q-4 -23 -15 -38.5t-34 -32.5q-16 -12 -45 -29v-39h-42v39q-29 17 -45 29q-23 17 -34 32z" />
    <glyph glyph-name="barrel" unicode="&#xf0074;" 
d="M384 43h21v-43h-298v43h21v128h-21v42h21v128h-21v43h298v-43h-21v-128h21v-42h-21v-128zM192 171q0 -27 18.5 -45.5t45.5 -18.5t45.5 18.5t18.5 45t-32 73.5q-16 23 -32 41v0l-17 -20q-19 -24 -30 -46q-17 -29 -17 -48z" />
    <glyph glyph-name="incognito-off" unicode="&#xf0075;" 
d="M472 -10l-421 421l-27 -27l111 -111l-7 -17h24l32 -32h-141v-32h173l72 -72q-3 -7 -6 -15q-27 11 -52 0q-7 28 -30 47t-52 19q-35 0 -59.5 -25t-24.5 -60.5t24.5 -60.5t58.5 -25t58 22.5t26 56.5q9 6 19 7q16 2 31 -8q3 -33 26.5 -55.5t56.5 -22.5q19 0 35 8l46 -45z
M148 24q-25 0 -42.5 18t-17.5 43.5t17.5 43t42.5 17.5t42.5 -17.5t17.5 -43t-17.5 -43.5t-42.5 -18zM364 24q-25 0 -42.5 18t-17.5 43q0 8 2 16l75 -74q-9 -3 -17 -3zM469 192h-145l-32 32h177v-32zM364 171q35 0 59.5 -25t24.5 -61q0 -7 -1 -15l-24 23q-2 21 -17 35.5
t-35 17.5l-23 23q8 2 16 2zM260 256l-95 96l15 39q3 8 11 12t16 1l49 -16l47 16q9 3 17 -0.5t12 -11.5l52 -136h-124z" />
    <glyph glyph-name="basket" unicode="&#xf0076;" 
d="M117 0q-12 0 -22 6.5t-16 16.5l-56 202l-2 10q0 9 6.5 15t15.5 6h97l99 140q6 9 17 9t18 -9l98 -140h97q9 0 15.5 -6t6.5 -15l-1 -7l-57 -205q-6 -10 -16 -16.5t-22 -6.5h-278zM256 347l-64 -91h128zM256 171q-18 0 -30.5 -12.5t-12.5 -30.5t12.5 -30.5t30.5 -12.5
t30.5 12.5t12.5 30.5t-12.5 30.5t-30.5 12.5z" />
    <glyph glyph-name="basket-fill" unicode="&#xf0077;" 
d="M64 405h64v-64h-64v64zM128 299h64v-64h-64v64zM171 405h64v-64h-64v64zM363 213l-107 107h64v85h85v-85h64zM160 -21q-12 0 -22.5 6.5t-15.5 16.5l-56 159l-2 10q0 9 6 15t15 6h342q9 0 15 -6t6 -15l-1 -7l-57 -162q-5 -10 -15.5 -16.5t-22.5 -6.5h-192zM162 21h188
l46 128h-280z" />
    <glyph glyph-name="basket-unfill" unicode="&#xf0078;" 
d="M64 235h64v64h-64v-64zM107 341h64v64h-64v-64zM171 235h64v64h-64v-64zM363 427l-107 -107h64v-85h85v85h64zM160 -21q-12 0 -22.5 6.5t-15.5 16.5l-56 159l-2 10q0 9 6 15t15 6h342q9 0 15 -6t6 -15l-1 -7l-57 -162q-5 -10 -15.5 -16.5t-22.5 -6.5h-192zM162 21h188
l46 128h-280z" />
    <glyph glyph-name="battery" unicode="&#xf0079;" 
d="M356 363h-36v42h-128v-42h-36q-11 0 -19.5 -8.5t-8.5 -20.5v-327q0 -12 8.5 -20t19.5 -8h200q11 0 19.5 8t8.5 20v327q0 12 -8.5 20.5t-19.5 8.5z" />
    <glyph glyph-name="battery-10" unicode="&#xf007a;" 
d="M341 64h-170v256h170v-256zM356 363h-36v42h-128v-42h-36q-11 0 -19.5 -8.5t-8.5 -20.5v-327q0 -12 8.5 -20t19.5 -8h200q11 0 19.5 8t8.5 20v327q0 12 -8.5 20.5t-19.5 8.5z" />
    <glyph glyph-name="battery-20" unicode="&#xf007b;" 
d="M341 85h-170v235h170v-235zM356 363h-36v42h-128v-42h-36q-11 0 -19.5 -8.5t-8.5 -20.5v-327q0 -12 8.5 -20t19.5 -8h200q11 0 19.5 8t8.5 20v327q0 12 -8.5 20.5t-19.5 8.5z" />
    <glyph glyph-name="battery-30" unicode="&#xf007c;" 
d="M341 128h-170v192h170v-192zM356 363h-36v42h-128v-42h-36q-11 0 -19.5 -8.5t-8.5 -20.5v-327q0 -12 8.5 -20t19.5 -8h200q11 0 19.5 8t8.5 20v327q0 12 -8.5 20.5t-19.5 8.5z" />
    <glyph glyph-name="battery-40" unicode="&#xf007d;" 
d="M341 149h-170v171h170v-171zM356 363h-36v42h-128v-42h-36q-11 0 -19.5 -8.5t-8.5 -20.5v-327q0 -12 8.5 -20t19.5 -8h200q11 0 19.5 8t8.5 20v327q0 12 -8.5 20.5t-19.5 8.5z" />
    <glyph glyph-name="battery-50" unicode="&#xf007e;" 
d="M341 171h-170v149h170v-149zM356 363h-36v42h-128v-42h-36q-11 0 -19.5 -8.5t-8.5 -20.5v-327q0 -12 8.5 -20t19.5 -8h200q11 0 19.5 8t8.5 20v327q0 12 -8.5 20.5t-19.5 8.5z" />
    <glyph glyph-name="battery-60" unicode="&#xf007f;" 
d="M341 192h-170v128h170v-128zM356 363h-36v42h-128v-42h-36q-11 0 -19.5 -8.5t-8.5 -20.5v-327q0 -12 8.5 -20t19.5 -8h200q11 0 19.5 8t8.5 20v327q0 12 -8.5 20.5t-19.5 8.5z" />
    <glyph glyph-name="battery-70" unicode="&#xf0080;" 
d="M341 235h-170v85h170v-85zM356 363h-36v42h-128v-42h-36q-11 0 -19.5 -8.5t-8.5 -20.5v-327q0 -12 8.5 -20t19.5 -8h200q11 0 19.5 8t8.5 20v327q0 12 -8.5 20.5t-19.5 8.5z" />
    <glyph glyph-name="battery-80" unicode="&#xf0081;" 
d="M341 256h-170v64h170v-64zM356 363h-36v42h-128v-42h-36q-11 0 -19.5 -8.5t-8.5 -20.5v-327q0 -12 8.5 -20t19.5 -8h200q11 0 19.5 8t8.5 20v327q0 12 -8.5 20.5t-19.5 8.5z" />
    <glyph glyph-name="battery-90" unicode="&#xf0082;" 
d="M341 277h-170v43h170v-43zM356 363h-36v42h-128v-42h-36q-11 0 -19.5 -8.5t-8.5 -20.5v-327q0 -12 8.5 -20t19.5 -8h200q11 0 19.5 8t8.5 20v327q0 12 -8.5 20.5t-19.5 8.5z" />
    <glyph glyph-name="battery-alert" unicode="&#xf0083;" 
d="M277 149h-42v128h42v-128zM277 64h-42v43h42v-43zM356 363h-36v42h-128v-42h-36q-11 0 -19.5 -8.5t-8.5 -19.5v-326q0 -13 8 -21.5t20 -8.5h198q11 0 19.5 8t8.5 19v329q1 11 -6.5 19.5t-19.5 8.5z" />
    <glyph glyph-name="battery-charging" unicode="&#xf0084;" 
d="M356 363h-36v42h-128v-42h-36q-11 0 -19.5 -8.5t-8.5 -20.5v-327q0 -12 8.5 -20t19.5 -8h199q12 0 20.5 8t8.5 20v327q0 12 -8.5 20.5t-19.5 8.5zM235 21v118h-43l85 160v-118h43z" />
    <glyph glyph-name="battery-charging-100" unicode="&#xf0085;" 
d="M491 213h-64v150l-107 -214h64v-170zM270 363h-35v42h-128v-42h-36q-12 0 -20 -8.5t-8 -20.5v-327q0 -12 8 -20t20 -8h199q12 0 20.5 8t8.5 20v327q0 12 -8.5 20.5t-20.5 8.5z" />
    <glyph glyph-name="battery-charging-20" unicode="&#xf0086;" 
d="M492 213h-64v150l-107 -214h64v-170zM257 85h-171v235h171v-235zM271 363h-35v42h-128v-42h-36q-12 0 -20 -8.5t-8 -20.5v-327q0 -12 8 -20t20 -8h199q12 0 20.5 8t8.5 20v327q0 12 -8.5 20.5t-20.5 8.5z" />
    <glyph glyph-name="battery-charging-30" unicode="&#xf0087;" 
d="M256 128h-171v192h171v-192zM270 363h-35v42h-128v-42h-36q-12 0 -20 -8.5t-8 -20.5v-327q0 -12 8 -20t20 -8h199q12 0 20.5 8t8.5 20v327q0 12 -8.5 20.5t-20.5 8.5zM491 213h-64v150l-107 -214h64v-170z" />
    <glyph glyph-name="battery-charging-40" unicode="&#xf0088;" 
d="M277 363h-42v42h-128v-42h-43q-10 0 -15.5 -6t-5.5 -16v-341q0 -10 5.5 -15.5t15.5 -5.5h213q10 0 16 5.5t6 15.5v341q0 10 -6 16t-16 6zM256 139h-171v181h171v-181zM491 213h-64v150l-107 -214h64v-170z" />
    <glyph glyph-name="battery-charging-60" unicode="&#xf0089;" 
d="M256 213h-171v107h171v-107zM270 363h-35v42h-128v-42h-36q-12 0 -20 -8.5t-8 -20.5v-327q0 -12 8 -20t20 -8h199q12 0 20.5 8t8.5 20v327q0 12 -8.5 20.5t-20.5 8.5zM491 213h-64v150l-107 -214h64v-170z" />
    <glyph glyph-name="battery-charging-80" unicode="&#xf008a;" 
d="M491 213h-64v150l-107 -214h64v-170zM256 256h-171v64h171v-64zM270 363h-35v42h-128v-42h-36q-12 0 -20 -8.5t-8 -20.5v-327q0 -12 8 -20t20 -8h199q12 0 20.5 8t8.5 20v327q0 12 -8.5 20.5t-20.5 8.5z" />
    <glyph glyph-name="battery-charging-90" unicode="&#xf008b;" 
d="M491 213h-64v150l-107 -214h64v-170zM256 277h-171v43h171v-43zM270 363h-35v42h-128v-42h-36q-12 0 -20 -8.5t-8 -20.5v-327q0 -12 8 -20t20 -8h199q12 0 20.5 8t8.5 20v327q0 12 -8.5 20.5t-20.5 8.5z" />
    <glyph glyph-name="battery-minus-variant" unicode="&#xf008c;" 
d="M356 363q11 0 19.5 -8.5t8.5 -20.5v-327q0 -12 -8.5 -20t-19.5 -8h-200q-11 0 -19.5 8t-8.5 20v327q0 12 8.5 20.5t19.5 8.5h36v42h128v-42h36zM171 192v-43h170v43h-170z" />
    <glyph glyph-name="battery-negative" unicode="&#xf008d;" 
d="M249 363q12 0 20 -8.5t8 -20.5v-327q0 -12 -8 -20t-20 -8h-199q-12 0 -20.5 8t-8.5 20v327q0 12 8.5 20.5t20.5 8.5h35v42h128v-42h36zM320 192h171v-43h-171v43zM64 171h171v149h-171v-149z" />
    <glyph glyph-name="battery-outline" unicode="&#xf008e;" 
d="M341 21h-170v299h170v-299zM356 363h-36v42h-128v-42h-36q-11 0 -19.5 -8.5t-8.5 -20.5v-327q0 -12 8.5 -20t19.5 -8h200q11 0 19.5 8t8.5 20v327q0 12 -8.5 20.5t-19.5 8.5z" />
    <glyph glyph-name="battery-plus-variant" unicode="&#xf008f;" 
d="M356 363q11 0 19.5 -8.5t8.5 -20.5v-327q0 -12 -8.5 -20t-19.5 -8h-200q-11 0 -19.5 8t-8.5 20v327q0 12 8.5 20.5t19.5 8.5h36v42h128v-42h36zM341 149v43h-64v64h-42v-64h-64v-43h64v-64h42v64h64z" />
    <glyph glyph-name="battery-positive" unicode="&#xf0090;" 
d="M249 363q12 0 20 -8.5t8 -20.5v-327q0 -12 -8 -20t-20 -8h-199q-12 0 -20.5 8t-8.5 20v327q0 12 8.5 20.5t20.5 8.5h35v42h128v-42h36zM491 149h-64v-64h-43v64h-64v43h64v64h43v-64h64v-43zM64 171h171v149h-171v-149z" />
    <glyph glyph-name="battery-unknown" unicode="&#xf0091;" 
d="M321 187l-19 -20q-10 -10 -14 -17q-6 -10 -9 -22h-43q3 29 24 50l26 27q13 12 13 29.5t-12.5 30t-30.5 12.5t-30.5 -12.5t-12.5 -29.5h-42q0 35 25 60t60 25t60 -25t25 -60q0 -28 -20 -48zM277 43h-42v42h42v-42zM356 363h-36v42h-128v-42h-36q-11 0 -19.5 -8.5
t-8.5 -20.5v-327q0 -12 8.5 -20t19.5 -8h200q11 0 19.5 8t8.5 20v327q0 12 -8.5 20.5t-19.5 8.5z" />
    <glyph glyph-name="beach" unicode="&#xf0092;" 
d="M320 52q74 12 149 12v-85h-362q0 7 22 19t59 24q41 13 89 23v138q-27 -8 -42 -33q-10 17 -27 27t-37 10t-37 -10t-27 -27q0 38 22.5 70t61.5 53t86 25v1q0 9 6.5 15t15.5 6t15 -6t6 -15v-1q47 -4 86 -25t61.5 -53t23.5 -70q-10 17 -27 27t-37 10t-37 -10t-27 -27
q-15 25 -43 34v-132zM149 405q0 -29 -14 -53.5t-38.5 -38.5t-53.5 -14v106h106z" />
    <glyph glyph-name="flask" unicode="&#xf0093;" 
d="M128 -21q-27 0 -45.5 18.5t-18.5 45.5q0 19 11 34l117 204v39q-9 0 -15 6t-6 15v22q0 17 12.5 29.5t29.5 12.5h86q17 0 29.5 -12.5t12.5 -29.5v-22q0 -9 -6 -15t-15 -6v-39l117 -204q11 -15 11 -34q0 -27 -18.5 -45.5t-45.5 -18.5h-256zM107 43q0 -9 6 -15.5t15 -6.5h256
q9 0 15 6.5t6 15.5q0 6 -4 12l-48 84l-54 -54l-108 108l-80 -138q-4 -6 -4 -12zM277 235q-9 0 -15 -6.5t-6 -15.5t6 -15t15 -6t15.5 6t6.5 15t-6.5 15.5t-15.5 6.5z" />
    <glyph glyph-name="flask-empty" unicode="&#xf0094;" 
d="M128 -21q-27 0 -45.5 18.5t-18.5 45.5q0 19 11 34l117 204v39q-9 0 -15 6t-6 15v22q0 17 12.5 29.5t29.5 12.5h86q17 0 29.5 -12.5t12.5 -29.5v-22q0 -9 -6 -15t-15 -6v-39l117 -204q11 -15 11 -34q0 -27 -18.5 -45.5t-45.5 -18.5h-256z" />
    <glyph glyph-name="flask-empty-outline" unicode="&#xf0095;" 
d="M107 43q0 -9 6 -15.5t15 -6.5h256q9 0 15 6.5t6 15.5q0 6 -4 12l-124 215v93h-42v-93l-124 -215q-4 -6 -4 -12zM128 -21q-27 0 -45.5 18.5t-18.5 45.5q0 19 11 34l117 204v39q-9 0 -15 6t-6 15v22q0 17 12.5 29.5t29.5 12.5h86q17 0 29.5 -12.5t12.5 -29.5v-22
q0 -9 -6 -15t-15 -6v-39l117 -204q11 -15 11 -34q0 -27 -18.5 -45.5t-45.5 -18.5h-256z" />
    <glyph glyph-name="flask-outline" unicode="&#xf0096;" 
d="M107 43q0 -9 6 -15.5t15 -6.5h256q9 0 15 6.5t6 15.5q0 6 -4 12l-124 215v93h-42v-93l-124 -215q-4 -6 -4 -12zM128 -21q-27 0 -45.5 18.5t-18.5 45.5q0 19 11 34l117 204v39q-9 0 -15 6t-6 15v22q0 17 12.5 29.5t29.5 12.5h86q17 0 29.5 -12.5t12.5 -29.5v-22
q0 -9 -6 -15t-15 -6v-39l117 -204q11 -15 11 -34q0 -27 -18.5 -45.5t-45.5 -18.5h-256zM277 107l29 28l41 -71h-182l57 98zM267 192q4 0 7 -3t3 -7.5t-3 -7.5t-7.5 -3t-7.5 3t-3 7.5t3 7.5t8 3z" />
    <glyph glyph-name="bunk-bed-outline" unicode="&#xf0097;" 
d="M21 405h43v-149h149v128h192q36 0 61 -25t25 -60v-342h-43v43h-384v-43h-43v448zM256 341v-85h192v43q0 17 -12.5 29.5t-30.5 12.5h-149zM64 213v-170h149v128h192q24 0 43 -13v55h-384zM139 171q22 0 37.5 -15.5t15.5 -38t-15.5 -38t-38 -15.5t-38 15.5t-15.5 38
t15.5 38t38.5 15.5zM139 137q-8 0 -14 -6t-6 -14t6 -13.5t14 -5.5t13.5 5.5t5.5 13.5t-5.5 14t-13.5 6zM256 128v-85h192v42q0 18 -12.5 30.5t-30.5 12.5h-149zM139 384q22 0 37.5 -15.5t15.5 -38t-15.5 -38t-38 -15.5t-38 15.5t-15.5 38t15.5 38t38.5 15.5zM139 350
q-8 0 -14 -5.5t-6 -13.5t6 -14t14 -6t13.5 6t5.5 14t-5.5 13.5t-13.5 5.5z" />
    <glyph glyph-name="beer" unicode="&#xf0098;" 
d="M85 405h320l-42 -426h-235zM132 363l34 -342h22l-29 292q47 15 76 -14q21 -22 61 -19q26 2 56 14l6 69h-226z" />
    <glyph glyph-name="bed-outline" unicode="&#xf0099;" 
d="M149 149q27 0 45.5 19t18.5 45.5t-18.5 45t-45 18.5t-45.5 -18.5t-19 -45t19 -45.5t45 -19zM149 235q9 0 15.5 -6.5t6.5 -15t-6.5 -15t-15 -6.5t-15 6.5t-6.5 15t6.5 15t14.5 6.5zM405 299h-170v-171h-171v213h-43v-320h43v64h384v-64h43v192q0 36 -25 61t-61 25z
M448 128h-171v128h128q18 0 30.5 -12.5t12.5 -30.5v-85z" />
    <glyph glyph-name="bell" unicode="&#xf009a;" 
d="M448 43v-22h-384v22l43 42v128q0 50 29.5 89.5t76.5 53.5v7q0 17 12.5 29.5t30.5 12.5t30.5 -12.5t12.5 -29.5v-7q47 -14 76.5 -53.5t29.5 -89.5v-128zM299 0q0 -18 -12.5 -30.5t-30.5 -12.5t-30.5 12.5t-12.5 30.5h86z" />
    <glyph glyph-name="bell-off" unicode="&#xf009b;" 
d="M445 -37l-59 58h-322v22l43 42v128q0 37 17 70l-100 101l27 27l421 -421zM405 111v102q0 50 -29.5 89.5t-76.5 53.5v7q0 17 -12.5 29.5t-30.5 12.5t-30.5 -12.5t-12.5 -29.5v-7q-19 -5 -37 -17zM256 -43q18 0 30.5 12.5t12.5 30.5h-86q0 -18 12.5 -30.5t30.5 -12.5z" />
    <glyph glyph-name="bell-outline" unicode="&#xf009c;" 
d="M213 0h86q0 -18 -12.5 -30.5t-30.5 -12.5t-30.5 12.5t-12.5 30.5zM448 43v-22h-384v22l43 42v128q0 50 29 89.5t77 53.5v7q0 17 12.5 29.5t30.5 12.5t30.5 -12.5t12.5 -29.5v-7q48 -14 77 -53.5t29 -89.5v-128zM363 213q0 30 -14.5 54.5t-39 38.5t-53.5 14t-53.5 -14
t-39 -38.5t-14.5 -54.5v-149h214v149z" />
    <glyph glyph-name="bell-plus" unicode="&#xf009d;" 
d="M363 149v-64h-64v-42h64v-64h42v64h64v42h-64v64h-42zM256 405q-18 0 -30.5 -12.5t-12.5 -29.5v-7q-46 -13 -76 -52.5t-30 -90.5v-128l-43 -42v-22h199q-7 21 -7 43q0 35 17 64.5t46.5 46.5t64.5 17q11 0 21 -2v23q0 51 -30 90.5t-76 52.5v7q0 17 -12.5 29.5t-30.5 12.5z
M213 0q0 -18 12.5 -30.5t30.5 -12.5q11 0 20 5t15 14q-10 11 -18 24h-60z" />
    <glyph glyph-name="bell-ring" unicode="&#xf009e;" 
d="M448 43v-22h-384v22l43 42v128q0 50 29.5 89.5t76.5 53.5v7q0 17 12.5 29.5t30.5 12.5t30.5 -12.5t12.5 -29.5v-7q47 -14 76.5 -53.5t29.5 -89.5v-128zM299 0q0 -18 -12.5 -30.5t-30.5 -12.5t-30.5 12.5t-12.5 30.5h86zM421 380l-30 -30q27 -27 42 -62.5t15 -74.5h43
q0 47 -18 90.5t-52 76.5zM21 213h43q0 39 15 74.5t42 62.5l-30 30q-34 -33 -52 -76.5t-18 -90.5z" />
    <glyph glyph-name="bell-ring-outline" unicode="&#xf009f;" 
d="M213 0h86q0 -18 -12.5 -30.5t-30.5 -12.5t-30.5 12.5t-12.5 30.5zM448 43v-22h-384v22l43 42v128q0 50 29.5 89.5t76.5 53.5v7q0 17 12.5 29.5t30.5 12.5t30.5 -12.5t12.5 -29.5v-7q47 -14 76.5 -53.5t29.5 -89.5v-128zM363 213q0 29 -14.5 53.5t-39 39t-53.5 14.5
t-53.5 -14.5t-39 -39t-14.5 -53.5v-149h214v149zM421 380l-30 -30q27 -27 42 -62.5t15 -74.5h43q0 47 -18 90.5t-52 76.5zM21 213h43q0 39 15 74.5t42 62.5l-30 30q-34 -33 -52 -76.5t-18 -90.5z" />
    <glyph glyph-name="bell-sleep" unicode="&#xf00a0;" 
d="M213 0h86q0 -18 -12.5 -30.5t-30.5 -12.5t-30.5 12.5t-12.5 30.5zM448 43v-22h-384v22l43 42v128q0 50 29.5 89.5t76.5 53.5v7q0 17 12.5 29.5t30.5 12.5t30.5 -12.5t12.5 -29.5v-7q47 -14 76.5 -53.5t29.5 -89.5v-128zM320 256h-128v-43h69l-69 -57v-49h128v42h-69
l69 58v49z" />
    <glyph glyph-name="beta" unicode="&#xf00a1;" 
d="M197 73v-118h-50v350q0 46 27 73t74 27q43 0 68.5 -21.5t25.5 -59.5q0 -26 -16.5 -49t-42.5 -31v-1q40 -7 61 -29.5t21 -58.5q0 -42 -29 -68.5t-77 -26.5q-34 0 -62 13zM229 219v41q27 3 45 20.5t18 39.5q0 44 -45 44q-24 0 -37 -15.5t-13 -43.5v-188q29 -17 56.5 -17
t42.5 14t15 40q0 57 -82 65z" />
    <glyph glyph-name="book-cross" unicode="&#xf00a2;" 
d="M124 405h25v-149l54 32l53 -32v149h128q18 0 30.5 -12.5t12.5 -29.5v-342q0 -16 -13 -29t-30 -13h-256q-17 0 -30 13t-13 29v342q0 16 11.5 28.5t27.5 13.5zM277 235v-64h-64v-43h64v-107h43v107h64v43h-64v64h-43z" />
    <glyph glyph-name="bike" unicode="&#xf00a3;" 
d="M107 11q-31 0 -53 21.5t-22 52.5t22 53t53 22t52.5 -22t21.5 -53t-21.5 -52.5t-52.5 -21.5zM107 192q-29 0 -53.5 -14.5t-39 -39t-14.5 -53.5t14.5 -53.5t39 -38.5t53.5 -14t53.5 14t38.5 38.5t14 53.5t-14 53.5t-38.5 39t-53.5 14.5zM316 235h89v38h-68l-41 70
q-5 8 -13.5 13t-17.5 5q-16 0 -26 -11l-79 -79q-11 -11 -11 -26q0 -20 18 -31l72 -43v-107h38v139l-48 35l50 50zM405 11q-31 0 -52.5 21.5t-21.5 52.5t21.5 53t52.5 22t53 -22t22 -53t-22 -52.5t-53 -21.5zM405 192q-29 0 -53.5 -14.5t-38.5 -39t-14 -53.5t14 -53.5
t38.5 -38.5t53.5 -14t53.5 14t39 38.5t14.5 53.5t-14.5 53.5t-39 39t-53.5 14.5zM341 346q16 0 27.5 11t11.5 27t-11.5 27t-27.5 11t-27 -11t-11 -27t11 -27t27 -11z" />
    <glyph glyph-name="microsoft-bing" unicode="&#xf00a4;" 
d="M107 384v-341l79 -43l198 111v87l-176 59l35 -83l54 -25l-111 -62v270z" />
    <glyph glyph-name="binoculars" unicode="&#xf00a5;" 
d="M235 320h42v-149h-42v149zM192 21q0 -9 -6 -15t-15 -6h-64q-9 0 -15.5 6t-6.5 15v107l43 192h85v-149q0 -9 -6 -15.5t-15 -6.5v-128zM213 341h-64v43h64v-43zM320 21v128q-9 0 -15 6.5t-6 15.5v149h85l43 -192v-107q0 -9 -6.5 -15t-15.5 -6h-64q-9 0 -15 6t-6 15z
M299 341v43h64v-43h-64z" />
    <glyph glyph-name="bio" unicode="&#xf00a6;" 
d="M363 192h64q17 0 29.5 -12.5t12.5 -30.5v-64q0 -17 -12.5 -29.5t-29.5 -12.5h-64q-18 0 -30.5 12.5t-12.5 29.5v64q0 18 12.5 30.5t30.5 12.5zM363 149v-64h64v64h-64zM43 299h106q18 0 30.5 -12.5t12.5 -30.5v-43q0 -17 -12.5 -29.5t-30.5 -12.5q18 0 30.5 -12.5
t12.5 -30.5v-43q0 -17 -12.5 -29.5t-30.5 -12.5h-106v256zM85 256v-64h64v64h-64zM85 85h64v64h-64v-64zM235 171h42v-128h-42v128zM235 256h42v-43h-42v43z" />
    <glyph glyph-name="biohazard" unicode="&#xf00a7;" 
d="M491 105q0 -9 -1 -13q-3 41 -33.5 69.5t-72.5 28.5q-10 0 -23 -3v-2q2 -9 2 -14q0 -38 -24 -66.5t-60 -36.5q5 -36 32.5 -61t65.5 -27q-5 -1 -14 -1q-33 0 -61.5 15t-45.5 41q-17 -26 -45.5 -41t-61.5 -15q-9 0 -14 1q38 2 65 27t33 61q-36 8 -60 36.5t-24 66.5q0 4 1 12
l1 4q-13 3 -23 3q-42 0 -72.5 -28.5t-33.5 -69.5q-1 4 -1 13q0 34 17 62.5t45 46t62 18.5q-17 29 -17 63.5t18 64t47 45.5q-20 -14 -32 -36.5t-12 -48.5q0 -21 8.5 -40.5t23.5 -34.5q31 31 75 31q22 0 41 -8t34 -23q15 15 23.5 34.5t8.5 40.5q0 26 -12 48.5t-32 36.5
q29 -16 47 -45.5t18 -64t-17 -63.5q34 -1 62.5 -18.5t45 -46t16.5 -62.5zM198 232q26 -17 58 -17t58 17q-25 23 -58 23t-58 -23zM256 139q13 0 22.5 9.5t9.5 22.5t-9.5 22.5t-22.5 9.5t-22.5 -9.5t-9.5 -22.5t9.5 -22.5t22.5 -9.5zM234 90q-2 30 -18.5 54t-43.5 36l-1 -9
q0 -29 17.5 -51.5t45.5 -29.5zM340 180q-26 -12 -43.5 -36t-19.5 -54q28 7 46 29.5t18 51.5z" />
    <glyph glyph-name="bitbucket" unicode="&#xf00a8;" 
d="M57 384q-6 0 -10 -4t-4 -10v-2l58 -352q1 -7 6 -11.5t12 -4.5h278q5 0 9 3t5 9l58 356q1 5 -2.5 9.5t-8.5 5.5zM301 129h-89l-24 126h134z" />
    <glyph glyph-name="black-mesa" unicode="&#xf00a9;" 
d="M256 405q42 0 81.5 -16t69.5 -46t46 -69.5t16 -81.5t-16 -81.5t-46 -69.5t-69.5 -46t-81.5 -16t-81.5 16t-69.5 46t-46 69.5t-16 81.5t16 81.5t46 69.5t69.5 46t81.5 16zM256 363q-46 0 -85.5 -23t-62.5 -62.5t-23 -85.5q0 -38 15.5 -71t42.5 -57h49v128h171l46 -77
q18 37 18 77q0 46 -23 85.5t-62.5 62.5t-85.5 23z" />
    <glyph glyph-name="shield-refresh" unicode="&#xf00aa;" 
d="M384 192q35 0 62 -15q2 13 2 36v128l-192 86l-192 -86v-128q0 -58 25 -111.5t68.5 -92t98.5 -52.5q9 2 21 7q-32 38 -32 89q0 38 19 70t50.5 50.5t69.5 18.5zM384 139q37 0 60 -26l25 26v-86h-85l38 39q-18 15 -38 15q-22 0 -37.5 -15.5t-15.5 -38t15.5 -38t37.5 -15.5
q25 0 43 21h36q-10 -24 -31 -38.5t-48 -14.5q-35 0 -60 25t-25 60.5t25 60.5t60 25z" />
    <glyph glyph-name="blender-software" unicode="&#xf00ab;" 
d="M268 381v0q-10 0 -18 -5.5t-9 -13.5t6 -14l61 -49l-186 -1q-12 0 -21.5 -6.5t-12 -16.5t4.5 -17t19 -7l95 1l-169 -130q-13 -10 -16 -23t4.5 -22.5t21.5 -9.5t27 9l91 76v-6q-1 -7 -1 -11q0 -11 5 -27q9 -30 31.5 -54.5t55 -39t70.5 -14.5t72 15q31 14 53.5 39t31.5 55
q5 13 7 30q0 20 -2 30q-4 29 -19 53t-37 41l-147 113q-7 5 -18 5zM327 252q38 0 67 -24q14 -11 22.5 -26t10 -33.5t-5 -35.5t-20.5 -31.5t-33 -22.5t-40.5 -8t-41 7.5t-33.5 22t-20.5 32t-4.5 35.5t10.5 33.5t22.5 26.5q28 24 66 24zM329 222q-25 0 -43.5 -16t-19.5 -39.5
t17 -41.5t46 -18t46.5 18t17.5 41.5t-20 39.5t-44 16z" />
    <glyph glyph-name="blinds" unicode="&#xf00ac;" 
d="M64 405h384q9 0 15 -6t6 -15v-43q0 -9 -6 -15t-15 -6h-21v-149q0 -9 -6.5 -15.5t-15.5 -6.5h-128v-46q19 -7 31 -23.5t12 -36.5q0 -27 -18.5 -45.5t-45.5 -18.5t-45.5 18.5t-18.5 45.5q0 20 12 36.5t31 23.5v46h-128q-9 0 -15.5 6.5t-6.5 15.5v149h-21q-9 0 -15 6t-6 15
v43q0 9 6 15t15 6zM256 64q-9 0 -15 -6t-6 -15t6 -15.5t15 -6.5t15 6.5t6 15.5t-6 15t-15 6z" />
    <glyph glyph-name="block-helper" unicode="&#xf00ad;" 
d="M256 448q70 0 128.5 -34.5t93 -93t34.5 -128.5t-34.5 -128.5t-93 -93t-128.5 -34.5t-128.5 34.5t-93 93t-34.5 128.5t34.5 128.5t93 93t128.5 34.5zM256 405q-42 0 -81.5 -16t-69.5 -46t-46 -69.5t-16 -81.5q0 -38 12.5 -72.5t35.5 -62.5l300 300q-28 23 -62.5 35.5
t-72.5 12.5zM256 -21q42 0 81.5 16t69.5 46t46 69.5t16 81.5q0 38 -12.5 72.5t-35.5 62.5l-300 -300q28 -23 62.5 -35.5t72.5 -12.5z" />
    <glyph glyph-name="application-edit" unicode="&#xf00ae;" 
d="M235 19l175 175q17 17 38 17t38 -17l5 -4v173q0 17 -12.5 29.5t-30.5 12.5h-384q-18 0 -30.5 -12.5t-12.5 -29.5v-342q0 -17 12.5 -29.5t30.5 -12.5h171v40zM64 363h384v-64h-384v64zM448 169q-4 0 -9 -5l-21 -21l45 -45l21 21q3 4 3 9t-3 9l-27 27q-5 5 -9 5zM407 130
l-130 -128v-45h45l130 130z" />
    <glyph glyph-name="bluetooth" unicode="&#xf00af;" 
d="M317 100l-40 -40v81zM277 324l40 -40l-40 -40v80zM378 284l-122 121h-21v-161l-98 97l-30 -30l119 -119l-119 -119l30 -30l98 98v-162h21l122 121l-92 92z" />
    <glyph glyph-name="bluetooth-audio" unicode="&#xf00b0;" 
d="M275 100l-40 -40v81zM235 324l40 -40l-40 -40v80zM335 284l-122 121h-21v-161l-98 97l-30 -30l119 -119l-119 -119l30 -30l98 98v-162h21l122 121l-92 92zM417 305l-27 -28q21 -39 21 -85t-21 -85l25 -26q33 52 33 112.5t-31 111.5zM304 192l49 -50q10 25 10 50t-10 49z
" />
    <glyph glyph-name="bluetooth-connect" unicode="&#xf00b1;" 
d="M405 235l-42 -43l42 -43l43 43zM317 100l-40 -40v81zM277 324l40 -40l-40 -40v80zM378 284l-122 121h-21v-161l-98 97l-30 -30l119 -119l-119 -119l30 -30l98 98v-162h21l122 121l-92 92zM149 192l-42 43l-43 -43l43 -43z" />
    <glyph glyph-name="bluetooth-off" unicode="&#xf00b2;" 
d="M277 324l40 -40l-34 -35l30 -30l65 65l-122 121h-21v-107l42 -43v69zM115 363l-30 -30l141 -141l-119 -119l30 -30l98 98v-162h21l92 91l49 -49l30 30zM277 60v81l40 -41z" />
    <glyph glyph-name="bluetooth-settings" unicode="&#xf00b3;" 
d="M317 143l-40 -40v80zM277 366l40 -40l-40 -40v80zM378 326l-122 122h-21v-162l-98 98l-30 -30l119 -119l-119 -120l30 -30l98 98v-162h21l122 122l-92 92zM320 -64h43v43h-43v-43zM149 -64h43v43h-43v-43zM235 -64h42v43h-42v-43z" />
    <glyph glyph-name="bluetooth-transfer" unicode="&#xf00b4;" 
d="M314 284l-92 -92l92 -92l-122 -121h-21v162l-98 -98l-30 30l119 119l-119 119l30 30l98 -98v162h21zM213 324v-81l40 41zM253 100l-40 41v-81zM469 277h-42v-64h-43v64h-43l64 86zM469 107l-64 -86l-64 86h43v64h43v-64h42z" />
    <glyph glyph-name="blur" unicode="&#xf00b5;" 
d="M299 267q-14 0 -23 -9.5t-9 -23t9 -22.5t22.5 -9t23 9t9.5 22.5t-9.5 23t-22.5 9.5zM299 181q-14 0 -23 -9t-9 -22.5t9 -23t22.5 -9.5t23 9.5t9.5 23t-9.5 22.5t-22.5 9zM213 85q-9 0 -15 -6t-6 -15t6 -15t15 -6t15.5 6t6.5 15t-6.5 15t-15.5 6zM213 267
q-13 0 -22.5 -9.5t-9.5 -23t9.5 -22.5t23 -9t22.5 9t9 22.5t-9 23t-23 9.5zM299 11q-5 0 -8 -3.5t-3 -7.5t3 -7.5t7.5 -3.5t7.5 3.5t3 7.5t-3 7.5t-7 3.5zM299 85q-9 0 -15.5 -6t-6.5 -15t6.5 -15t15.5 -6t15 6t6 15t-6 15t-15 6zM448 160q-4 0 -7.5 -3t-3.5 -7.5t3.5 -7.5
t7.5 -3t7.5 3t3.5 7.5t-3.5 7.5t-7.5 3zM384 341q-9 0 -15 -6t-6 -15t6 -15t15 -6t15 6t6 15t-6 15t-15 6zM384 256q-9 0 -15 -6t-6 -15t6 -15.5t15 -6.5t15 6.5t6 15.5t-6 15t-15 6zM384 85q-9 0 -15 -6t-6 -15t6 -15t15 -6t15 6t6 15t-6 15t-15 6zM384 171q-9 0 -15 -6.5
t-6 -15.5t6 -15t15 -6t15 6t6 15t-6 15.5t-15 6.5zM213 181q-13 0 -22.5 -9t-9.5 -22.5t9.5 -23t23 -9.5t22.5 9.5t9 23t-9 22.5t-23 9zM213 299q9 0 15.5 6t6.5 15t-6.5 15t-15.5 6t-15 -6t-6 -15t6 -15t15 -6zM213 373q5 0 8 3.5t3 7.5t-3 7.5t-7.5 3.5t-7.5 -3.5t-3 -7.5
t3 -7.5t7 -3.5zM213 11q-4 0 -7 -3.5t-3 -7.5t3 -7.5t7.5 -3.5t7.5 3.5t3 7.5t-3 7.5t-8 3.5zM64 160q-4 0 -7.5 -3t-3.5 -7.5t3.5 -7.5t7.5 -3t7.5 3t3.5 7.5t-3.5 7.5t-7.5 3zM299 373q4 0 7 3.5t3 7.5t-3 7.5t-7.5 3.5t-7.5 -3.5t-3 -7.5t3 -7.5t8 -3.5zM299 299
q9 0 15 6t6 15t-6 15t-15 6t-15.5 -6t-6.5 -15t6.5 -15t15.5 -6zM448 224q4 0 7.5 3t3.5 7.5t-3.5 7.5t-7.5 3t-7.5 -3t-3.5 -7.5t3.5 -7.5t7.5 -3zM128 341q-9 0 -15 -6t-6 -15t6 -15t15 -6t15 6t6 15t-6 15t-15 6zM64 245q-4 0 -7.5 -3t-3.5 -7.5t3.5 -7.5t7.5 -3t7.5 3
t3.5 7.5t-3.5 7.5t-7.5 3zM128 256q-9 0 -15 -6t-6 -15t6 -15.5t15 -6.5t15 6.5t6 15.5t-6 15t-15 6zM128 85q-9 0 -15 -6t-6 -15t6 -15t15 -6t15 6t6 15t-6 15t-15 6zM128 171q-9 0 -15 -6.5t-6 -15.5t6 -15t15 -6t15 6t6 15t-6 15.5t-15 6.5z" />
    <glyph glyph-name="blur-linear" unicode="&#xf00b6;" 
d="M277 85q9 0 15.5 6.5t6.5 15.5t-6.5 15t-15.5 6t-15 -6t-6 -15t6 -15.5t15 -6.5zM277 171q9 0 15.5 6t6.5 15t-6.5 15t-15.5 6t-15 -6t-6 -15t6 -15t15 -6zM277 256q9 0 15.5 6t6.5 15t-6.5 15.5t-15.5 6.5t-15 -6.5t-6 -15.5t6 -15t15 -6zM363 181q4 0 7 3.5t3 7.5
t-3 7.5t-7.5 3.5t-7.5 -3.5t-3 -7.5t3 -7.5t8 -3.5zM363 267q4 0 7 3t3 7.5t-3 7.5t-7.5 3t-7.5 -3t-3 -7.5t3 -7.5t8 -3zM64 384v-43h384v43h-384zM363 96q4 0 7 3t3 7.5t-3 7.5t-7.5 3t-7.5 -3t-3 -7.5t3 -7.5t8 -3zM192 85q9 0 15 6.5t6 15.5t-6 15t-15 6t-15 -6t-6 -15
t6 -15.5t15 -6.5zM107 160q13 0 22.5 9.5t9.5 22.5t-9.5 22.5t-23 9.5t-22.5 -9.5t-9 -22.5t9 -22.5t23 -9.5zM107 245q13 0 22.5 9.5t9.5 23t-9.5 22.5t-23 9t-22.5 -9t-9 -22.5t9 -23t23 -9.5zM64 0h384v43h-384v-43zM192 256q9 0 15 6t6 15t-6 15.5t-15 6.5t-15 -6.5
t-6 -15.5t6 -15t15 -6zM192 171q9 0 15 6t6 15t-6 15t-15 6t-15 -6t-6 -15t6 -15t15 -6zM107 75q13 0 22.5 9t9.5 22.5t-9.5 23t-23 9.5t-22.5 -9.5t-9 -23t9 -22.5t23 -9z" />
    <glyph glyph-name="blur-off" unicode="&#xf00b7;" 
d="M64 160q-4 0 -7.5 -3t-3.5 -7.5t3.5 -7.5t7.5 -3t7.5 3t3.5 7.5t-3.5 7.5t-7.5 3zM128 85q-9 0 -15 -6t-6 -15t6 -15t15 -6t15 6t6 15t-6 15t-15 6zM213 11q-4 0 -7 -3.5t-3 -7.5t3 -7.5t7.5 -3.5t7.5 3.5t3 7.5t-3 7.5t-8 3.5zM64 245q-4 0 -7.5 -3t-3.5 -7.5t3.5 -7.5
t7.5 -3t7.5 3t3.5 7.5t-3.5 7.5t-7.5 3zM128 171q-9 0 -15 -6.5t-6 -15.5t6 -15t15 -6t15 6t6 15t-6 15.5t-15 6.5zM448 160q-4 0 -7.5 -3t-3.5 -7.5t3.5 -7.5t7.5 -3t7.5 3t3.5 7.5t-3.5 7.5t-7.5 3zM213 85q-9 0 -15 -6t-6 -15t6 -15t15 -6t15.5 6t6.5 15t-6.5 15t-15.5 6
zM53 336l81 -81l-6 1q-9 0 -15 -6t-6 -15t6 -15.5t15 -6.5t15 6.5t6 15.5q0 2 -1 6l60 -60q-11 -2 -19 -11t-8 -21.5t9.5 -22t22 -9.5t21.5 8t11 19l60 -60q-4 1 -6 1q-9 0 -15.5 -6t-6.5 -15t6.5 -15t15.5 -6t15 6t6 15q0 2 -1 6l80 -81l28 27l-347 347zM299 11
q-5 0 -8 -3.5t-3 -7.5t3 -7.5t7.5 -3.5t7.5 3.5t3 7.5t-3 7.5t-7 3.5zM384 299q9 0 15 6t6 15t-6 15t-15 6t-15 -6t-6 -15t6 -15t15 -6zM384 213q9 0 15 6.5t6 15.5t-6 15t-15 6t-15 -6t-6 -15t6 -15.5t15 -6.5zM384 128q9 0 15 6t6 15t-6 15.5t-15 6.5t-15 -6.5t-6 -15.5
t6 -15t15 -6zM213 299q9 0 15.5 6t6.5 15t-6.5 15t-15.5 6t-15 -6t-6 -15t6 -15t15 -6zM448 224q4 0 7.5 3t3.5 7.5t-3.5 7.5t-7.5 3t-7.5 -3t-3.5 -7.5t3.5 -7.5t7.5 -3zM213 373q5 0 8 3.5t3 7.5t-3 7.5t-7.5 3.5t-7.5 -3.5t-3 -7.5t3 -7.5t7 -3.5zM299 373q4 0 7 3.5
t3 7.5t-3 7.5t-7.5 3.5t-7.5 -3.5t-3 -7.5t3 -7.5t8 -3.5zM294 203h5q13 0 22.5 9t9.5 22.5t-9.5 23t-23 9.5t-22.5 -9.5t-9 -22.5v-5q1 -10 9 -18t18 -9zM299 299q9 0 15 6t6 15t-6 15t-15 6t-15.5 -6t-6.5 -15t6.5 -15t15.5 -6z" />
    <glyph glyph-name="blur-radial" unicode="&#xf00b8;" 
d="M299 171q-9 0 -15.5 -6.5t-6.5 -15.5t6.5 -15t15.5 -6t15 6t6 15t-6 15.5t-15 6.5zM299 96q-5 0 -8 -3t-3 -7.5t3 -7.5t7.5 -3t7.5 3t3 7.5t-3 7.5t-7 3zM256 21q-46 0 -85.5 23t-62.5 62.5t-23 85.5t23 85.5t62.5 62.5t85.5 23t85.5 -23t62.5 -62.5t23 -85.5t-23 -85.5
t-62.5 -62.5t-85.5 -23zM256 405q-42 0 -81.5 -16t-69.5 -46t-46 -69.5t-16 -81.5t16 -81.5t46 -69.5t69.5 -46t81.5 -16t81.5 16t69.5 46t46 69.5t16 81.5t-16 81.5t-46 69.5t-69.5 46t-81.5 16zM363 245q-5 0 -8 -3t-3 -7.5t3 -7.5t7.5 -3t7.5 3t3 7.5t-3 7.5t-7 3z
M363 160q-5 0 -8 -3t-3 -7.5t3 -7.5t7.5 -3t7.5 3t3 7.5t-3 7.5t-7 3zM299 288q4 0 7 3t3 7.5t-3 7.5t-7.5 3t-7.5 -3t-3 -7.5t3 -7.5t8 -3zM299 256q-9 0 -15.5 -6t-6.5 -15t6.5 -15.5t15.5 -6.5t15 6.5t6 15.5t-6 15t-15 6zM213 288q5 0 8 3t3 7.5t-3 7.5t-7.5 3t-7.5 -3
t-3 -7.5t3 -7.5t7 -3zM149 160q-4 0 -7 -3t-3 -7.5t3 -7.5t7.5 -3t7.5 3t3 7.5t-3 7.5t-8 3zM213 96q-4 0 -7 -3t-3 -7.5t3 -7.5t7.5 -3t7.5 3t3 7.5t-3 7.5t-8 3zM149 245q-4 0 -7 -3t-3 -7.5t3 -7.5t7.5 -3t7.5 3t3 7.5t-3 7.5t-8 3zM213 171q-9 0 -15 -6.5t-6 -15.5
t6 -15t15 -6t15.5 6t6.5 15t-6.5 15.5t-15.5 6.5zM213 256q-9 0 -15 -6t-6 -15t6 -15.5t15 -6.5t15.5 6.5t6.5 15.5t-6.5 15t-15.5 6z" />
    <glyph glyph-name="bone" unicode="&#xf00b9;" 
d="M171 149q0 -26 -19 -45t-45.5 -19t-45 19t-18.5 44.5t16 43.5q-16 18 -16 43.5t18.5 44.5t45 19t45.5 -19t19 -45l8 -1q51 -3 77 -3t77 3l8 1q0 26 19 45t45.5 19t45 -19t18.5 -44.5t-16 -43.5q16 -18 16 -43.5t-18.5 -44.5t-45 -19t-45.5 19t-19 45l-8 1q-51 3 -77 3
t-77 -3z" />
    <glyph glyph-name="book" unicode="&#xf00ba;" 
d="M384 -21q18 0 30.5 12.5t12.5 29.5v342q0 17 -12.5 29.5t-30.5 12.5h-128v-149l-53 32l-54 -32v149h-21q-18 0 -30.5 -12.5t-12.5 -29.5v-342q0 -17 12.5 -29.5t30.5 -12.5h256z" />
    <glyph glyph-name="book-multiple" unicode="&#xf00bb;" 
d="M405 64h-213q-18 0 -30.5 12.5t-12.5 30.5v256q0 17 12.5 29.5t30.5 12.5h21v-106l43 32l43 -32v106h106q18 0 30.5 -12.5t12.5 -29.5v-256q0 -18 -12.5 -30.5t-30.5 -12.5zM363 21v-42h-256q-18 0 -30.5 12.5t-12.5 29.5v299h43v-299h256z" />
    <glyph glyph-name="book-variant-multiple" unicode="&#xf00bc;" 
d="M85 320h-42v-299q0 -17 12.5 -29.5t29.5 -12.5h299v42h-299v299zM427 405h-256q-18 0 -30.5 -12.5t-12.5 -29.5v-256q0 -18 12.5 -30.5t30.5 -12.5h256q17 0 29.5 12.5t12.5 30.5v256q0 17 -12.5 29.5t-29.5 12.5zM427 192l-54 32l-53 -32v171h107v-171z" />
    <glyph glyph-name="book-open" unicode="&#xf00bd;" 
d="M277 192h150v-32h-150v32zM277 245h150v-32h-150v32zM277 139h150v-32h-150v32zM448 363h-384q-18 0 -30.5 -12.5t-12.5 -30.5v-277q0 -18 12.5 -30.5t30.5 -12.5h384q18 0 30.5 12.5t12.5 30.5v277q0 18 -12.5 30.5t-30.5 12.5zM448 43h-192v277h192v-277z" />
    <glyph glyph-name="book-open-blank-variant" unicode="&#xf00be;" 
d="M448 341q-34 11 -75 11q-34 0 -62 -7q-33 -8 -55 -25q-22 17 -55 25q-28 7 -62 7t-63 -7q-33 -8 -55 -25v-313q0 -4 3.5 -7t7.5 -3l5 1q22 10 50 16.5t52 6.5q34 0 62 -7q33 -8 55 -25q21 14 55.5 23t61.5 9q60 0 102 -22q2 -1 5.5 -1t7 3.5t3.5 7.5v311q-17 13 -43 21z
M448 53q-34 11 -75 11q-27 0 -61.5 -9.5t-55.5 -22.5v245q21 14 55.5 23t61.5 9q41 0 75 -10v-246z" />
    <glyph glyph-name="book-variant" unicode="&#xf00bf;" 
d="M128 363h107v-171l-54 32l-53 -32v171zM384 405h-256q-18 0 -30.5 -12.5t-12.5 -29.5v-342q0 -17 12.5 -29.5t30.5 -12.5h256q18 0 30.5 12.5t12.5 29.5v342q0 17 -12.5 29.5t-30.5 12.5z" />
    <glyph glyph-name="bookmark" unicode="&#xf00c0;" 
d="M363 384h-214q-17 0 -29.5 -12.5t-12.5 -30.5v-341l149 64l149 -64v341q0 18 -12.5 30.5t-29.5 12.5z" />
    <glyph glyph-name="bookmark-check" unicode="&#xf00c1;" 
d="M363 384q17 0 29.5 -12.5t12.5 -30.5v-341l-149 64l-149 -64v341q0 18 12.5 30.5t29.5 12.5h214zM235 149l133 133l-30 31l-103 -104l-56 56l-30 -30z" />
    <glyph glyph-name="bookmark-music" unicode="&#xf00c2;" 
d="M363 384q17 0 29.5 -12.5t12.5 -30.5v-341l-149 64l-149 -64v341q0 18 12.5 30.5t29.5 12.5h214zM235 213q-18 0 -30.5 -12.5t-12.5 -30t12.5 -30t30 -12.5t30 12.5t12.5 30.5v106h64v43h-85v-112q-10 5 -21 5z" />
    <glyph glyph-name="bookmark-outline" unicode="&#xf00c3;" 
d="M363 64l-107 47l-107 -47v277h214v-277zM363 384h-214q-17 0 -29.5 -12.5t-12.5 -30.5v-341l149 64l149 -64v341q0 18 -12.5 30.5t-29.5 12.5z" />
    <glyph glyph-name="bookmark-plus-outline" unicode="&#xf00c4;" 
d="M363 64v277h-214v-277l107 47zM363 384q17 0 29.5 -12.5t12.5 -30.5v-341l-149 64l-149 -64v341q0 18 12.5 30.5t29.5 12.5h214zM235 299h42v-43h43v-43h-43v-42h-42v42h-43v43h43v43z" />
    <glyph glyph-name="bookmark-plus" unicode="&#xf00c5;" 
d="M363 384q17 0 29.5 -12.5t12.5 -30.5v-341l-149 64l-149 -64v341q0 18 12.5 30.5t29.5 12.5h214zM235 299v-43h-43v-43h43v-42h42v42h43v43h-43v43h-42z" />
    <glyph glyph-name="bookmark-remove" unicode="&#xf00c6;" 
d="M363 384q17 0 29.5 -12.5t12.5 -30.5v-341l-149 64l-149 -64v341q0 18 12.5 30.5t29.5 12.5h214zM174 265l52 -52l-52 -51l31 -30l51 51l51 -51l31 30l-52 51l52 52l-31 30l-51 -51l-51 51z" />
    <glyph glyph-name="border-all" unicode="&#xf00c7;" 
d="M405 213h-128v128h128v-128zM405 43h-128v128h128v-128zM235 213h-128v128h128v-128zM235 43h-128v128h128v-128zM64 0h384v384h-384v-384z" />
    <glyph glyph-name="border-bottom" unicode="&#xf00c8;" 
d="M107 128h-43v-43h43v43zM64 0h384v43h-384v-43zM107 213h-43v-42h43v42zM405 256h43v43h-43v-43zM405 341h43v43h-43v-43zM107 299h-43v-43h43v43zM405 85h43v43h-43v-43zM405 171h43v42h-43v-42zM363 384h-43v-43h43v43zM277 384h-42v-43h42v43zM363 213h-43v-42h43v42z
M277 299h-42v-43h42v43zM107 384h-43v-43h43v43zM277 213h-42v-42h42v42zM192 384h-43v-43h43v43zM277 128h-42v-43h42v43zM192 213h-43v-42h43v42z" />
    <glyph glyph-name="border-color" unicode="&#xf00c9;" 
d="M442 362q6 6 6 15t-6 15l-50 50q-6 6 -15 6t-15 -6l-42 -42l80 -80zM379 299l-80 80l-214 -214v-80h80z" />
    <glyph glyph-name="border-horizontal" unicode="&#xf00ca;" 
d="M405 0h43v43h-43v-43zM320 0h43v43h-43v-43zM235 85h42v43h-42v-43zM405 256h43v43h-43v-43zM405 341h43v43h-43v-43zM64 171h384v42h-384v-42zM235 0h42v43h-42v-43zM405 85h43v43h-43v-43zM277 384h-42v-43h42v43zM277 299h-42v-43h42v43zM363 384h-43v-43h43v43z
M192 384h-43v-43h43v43zM107 384h-43v-43h43v43zM149 0h43v43h-43v-43zM64 85h43v43h-43v-43zM107 299h-43v-43h43v43zM64 0h43v43h-43v-43z" />
    <glyph glyph-name="border-inside" unicode="&#xf00cb;" 
d="M405 85h43v43h-43v-43zM405 0h43v43h-43v-43zM277 384h-42v-171h-171v-42h171v-171h42v171h171v42h-171v171zM320 0h43v43h-43v-43zM405 341h43v43h-43v-43zM405 256h43v43h-43v-43zM363 384h-43v-43h43v43zM107 384h-43v-43h43v43zM192 384h-43v-43h43v43zM64 85h43v43
h-43v-43zM107 299h-43v-43h43v43zM149 0h43v43h-43v-43zM64 0h43v43h-43v-43z" />
    <glyph glyph-name="border-left" unicode="&#xf00cc;" 
d="M320 341h43v43h-43v-43zM320 171h43v42h-43v-42zM405 0h43v43h-43v-43zM405 171h43v42h-43v-42zM405 341h43v43h-43v-43zM405 85h43v43h-43v-43zM320 0h43v43h-43v-43zM405 256h43v43h-43v-43zM64 0h43v384h-43v-384zM149 171h43v42h-43v-42zM149 341h43v43h-43v-43z
M149 0h43v43h-43v-43zM235 171h42v42h-42v-42zM235 256h42v43h-42v-43zM235 341h42v43h-42v-43zM235 85h42v43h-42v-43zM235 0h42v43h-42v-43z" />
    <glyph glyph-name="border-none" unicode="&#xf00cd;" 
d="M320 341h43v43h-43v-43zM320 171h43v42h-43v-42zM320 0h43v43h-43v-43zM235 341h42v43h-42v-43zM405 341h43v43h-43v-43zM235 256h42v43h-42v-43zM405 256h43v43h-43v-43zM405 0h43v43h-43v-43zM405 171h43v42h-43v-42zM405 85h43v43h-43v-43zM235 171h42v42h-42v-42z
M64 341h43v43h-43v-43zM64 256h43v43h-43v-43zM64 171h43v42h-43v-42zM64 85h43v43h-43v-43zM64 0h43v43h-43v-43zM235 0h42v43h-42v-43zM235 85h42v43h-42v-43zM149 0h43v43h-43v-43zM149 171h43v42h-43v-42zM149 341h43v43h-43v-43z" />
    <glyph glyph-name="border-outside" unicode="&#xf00ce;" 
d="M192 213h-43v-42h43v42zM277 128h-42v-43h42v43zM405 43h-298v298h298v-298zM64 0h384v384h-384v-384zM363 213h-43v-42h43v42zM277 213h-42v-42h42v42zM277 299h-42v-43h42v43z" />
    <glyph glyph-name="border-right" unicode="&#xf00cf;" 
d="M235 256h42v43h-42v-43zM235 341h42v43h-42v-43zM235 171h42v42h-42v-42zM320 341h43v43h-43v-43zM320 0h43v43h-43v-43zM405 0h43v384h-43v-384zM320 171h43v42h-43v-42zM235 85h42v43h-42v-43zM64 256h43v43h-43v-43zM64 85h43v43h-43v-43zM64 171h43v42h-43v-42z
M235 0h42v43h-42v-43zM64 0h43v43h-43v-43zM149 171h43v42h-43v-42zM149 341h43v43h-43v-43zM64 341h43v43h-43v-43zM149 0h43v43h-43v-43z" />
    <glyph glyph-name="border-style" unicode="&#xf00d0;" 
d="M320 0h43v43h-43v-43zM405 0h43v43h-43v-43zM149 0h43v43h-43v-43zM235 0h42v43h-42v-43zM405 85h43v43h-43v-43zM405 171h43v42h-43v-42zM64 384v-384h43v341h341v43h-384zM405 256h43v43h-43v-43z" />
    <glyph glyph-name="border-top" unicode="&#xf00d1;" 
d="M320 171h43v42h-43v-42zM405 0h43v43h-43v-43zM235 256h42v43h-42v-43zM320 0h43v43h-43v-43zM405 85h43v43h-43v-43zM64 341h384v43h-384v-43zM405 171h43v42h-43v-42zM405 256h43v43h-43v-43zM235 85h42v43h-42v-43zM64 256h43v43h-43v-43zM64 171h43v42h-43v-42zM64 0
h43v43h-43v-43zM64 85h43v43h-43v-43zM235 0h42v43h-42v-43zM235 171h42v42h-42v-42zM149 171h43v42h-43v-42zM149 0h43v43h-43v-43z" />
    <glyph glyph-name="border-vertical" unicode="&#xf00d2;" 
d="M320 171h43v42h-43v-42zM320 0h43v43h-43v-43zM320 341h43v43h-43v-43zM405 256h43v43h-43v-43zM405 341h43v43h-43v-43zM405 171h43v42h-43v-42zM405 0h43v43h-43v-43zM235 0h42v384h-42v-384zM405 85h43v43h-43v-43zM149 341h43v43h-43v-43zM64 85h43v43h-43v-43zM64 0
h43v43h-43v-43zM64 171h43v42h-43v-42zM149 171h43v42h-43v-42zM149 0h43v43h-43v-43zM64 341h43v43h-43v-43zM64 256h43v43h-43v-43z" />
    <glyph glyph-name="bowling" unicode="&#xf00d3;" 
d="M256 405q42 0 81.5 -16t69.5 -46t46 -69.5t16 -81.5t-16 -81.5t-46 -69.5t-69.5 -46t-81.5 -16t-81.5 16t-69.5 46t-46 69.5t-16 81.5t16 81.5t46 69.5t69.5 46t81.5 16zM267 213q-14 0 -23 -9t-9 -22.5t9 -23t22.5 -9.5t23 9.5t9.5 23t-9.5 22.5t-22.5 9zM256 341
q-18 0 -30.5 -12.5t-12.5 -30t12.5 -30t30.5 -12.5t30.5 12.5t12.5 30t-12.5 30t-30.5 12.5zM127 267q-9 -16 -4.5 -33t19.5 -25.5t32.5 -4t26 20t4 32.5t-19.5 25.5t-32 4t-26 -19.5z" />
    <glyph glyph-name="box" unicode="&#xf00d4;" 
d="M328 148v0q0 23 -16 39t-38.5 16t-38.5 -16t-16 -39v0q0 -22 16 -38t38.5 -16t38.5 16t16 38zM365 148q0 -37 -27 -64t-65 -27q-25 0 -46.5 13.5t-33.5 35.5q-12 -22 -33.5 -35.5t-46.5 -13.5q-38 0 -64.5 26.5t-27.5 63.5v0v152q0 7 5.5 12t13 5t13 -5t5.5 -12v0v-78
q24 19 55 19q25 0 46.5 -13.5t33.5 -35.5q12 22 33.5 35.5t46.5 13.5q38 0 65 -27t27 -65v0zM167 148v0q0 23 -16 39t-38.5 16t-38.5 -16t-16 -39v0q0 -22 16 -38t38.5 -16t38.5 16t16 38zM487 86v0q4 -5 4 -11q0 -9 -8 -14q-5 -4 -10 -4q-9 0 -14 7l-41 54l-40 -54
q-6 -7 -15 -7q-5 0 -11.5 4.5t-6.5 14.5q0 5 3 10v0l47 62l-47 63v0q-3 5 -3 11q0 8 6.5 13.5t14 4.5t12.5 -7v0l40 -54l41 54q4 6 11 7t14 -4t7 -15q0 -6 -4 -10l-46 -63z" />
    <glyph glyph-name="box-cutter" unicode="&#xf00d5;" 
d="M154 194q-10 -10 -12 -25l118 -50l181 181q12 12 12 29.5t-12 30.5l-31 30q-12 13 -29.5 13t-30.5 -13zM107 107v-123l124 111l-107 43zM365 345q6 6 15 6t15.5 -6t6.5 -15t-6.5 -15.5t-15.5 -6.5t-15 6.5t-6 15.5t6 15z" />
    <glyph glyph-name="briefcase" unicode="&#xf00d6;" 
d="M213 405h86q17 0 29.5 -12.5t12.5 -29.5v-43h86q17 0 29.5 -12.5t12.5 -30.5v-234q0 -18 -12.5 -30.5t-29.5 -12.5h-342q-17 0 -29.5 12.5t-12.5 30.5v234q0 18 12.5 30.5t29.5 12.5h86v43q0 17 12.5 29.5t29.5 12.5zM299 320v43h-86v-43h86z" />
    <glyph glyph-name="briefcase-check" unicode="&#xf00d7;" 
d="M213 405h86q17 0 29.5 -12.5t12.5 -29.5v-43h86q17 0 29.5 -12.5t12.5 -30.5v-234q0 -18 -12.5 -30.5t-29.5 -12.5h-342q-17 0 -29.5 12.5t-12.5 30.5v234q0 18 12.5 30.5t29.5 12.5h86v43q0 17 12.5 29.5t29.5 12.5zM299 320v43h-86v-43h86zM224 75l141 140l-30 30
l-111 -110l-45 44l-30 -30z" />
    <glyph glyph-name="briefcase-download" unicode="&#xf00d8;" 
d="M213 405h86q17 0 29.5 -12.5t12.5 -29.5v-43h86q17 0 29.5 -12.5t12.5 -30.5v-234q0 -18 -12.5 -30.5t-29.5 -12.5h-342q-17 0 -29.5 12.5t-12.5 30.5v234q0 18 12.5 30.5t29.5 12.5h86v43q0 17 12.5 29.5t29.5 12.5zM299 320v43h-86v-43h86zM256 43l107 106h-64v86h-86
v-86h-64z" />
    <glyph glyph-name="briefcase-upload" unicode="&#xf00d9;" 
d="M213 405h86q17 0 29.5 -12.5t12.5 -29.5v-43h86q17 0 29.5 -12.5t12.5 -30.5v-234q0 -18 -12.5 -30.5t-29.5 -12.5h-342q-17 0 -29.5 12.5t-12.5 30.5v234q0 18 12.5 30.5t29.5 12.5h86v43q0 17 12.5 29.5t29.5 12.5zM299 320v43h-86v-43h86zM256 256l-107 -107h64v-85
h86v85h64z" />
    <glyph glyph-name="brightness-1" unicode="&#xf00da;" 
d="M256 405q42 0 81.5 -16t69.5 -46t46 -69.5t16 -81.5t-16 -81.5t-46 -69.5t-69.5 -46t-81.5 -16t-81.5 16t-69.5 46t-46 69.5t-16 81.5t16 81.5t46 69.5t69.5 46t81.5 16z" />
    <glyph glyph-name="brightness-2" unicode="&#xf00db;" 
d="M213 405q-57 0 -106 -28q48 -29 77 -78t29 -107t-29 -107t-77 -78q49 -28 106 -28q43 0 82 16t69 46t46.5 69.5t16.5 81.5t-16.5 81.5t-46.5 69.5t-69 46t-82 16z" />
    <glyph glyph-name="brightness-3" unicode="&#xf00dc;" 
d="M192 405q-33 0 -64 -9q66 -21 107.5 -77t41.5 -127t-41.5 -127t-107.5 -77q31 -9 64 -9q42 0 81.5 16t69.5 46t46 69.5t16 81.5t-16 81.5t-46 69.5t-69.5 46t-81.5 16z" />
    <glyph glyph-name="brightness-4" unicode="&#xf00dd;" 
d="M256 64q-28 0 -53 12q33 15 53.5 46.5t20.5 69.5t-20.5 69.5t-53.5 46.5q25 12 53 12q35 0 64.5 -17t46.5 -46.5t17 -64.5t-17 -64.5t-46.5 -46.5t-64.5 -17zM427 263v100h-100l-71 70l-71 -70h-100v-100l-70 -71l70 -71v-100h100l71 -70l71 70h100v100l70 71z" />
    <glyph glyph-name="brightness-5" unicode="&#xf00de;" 
d="M256 64q-35 0 -64.5 17t-46.5 46.5t-17 64.5t17 64.5t46.5 46.5t64.5 17t64.5 -17t46.5 -46.5t17 -64.5t-17 -64.5t-46.5 -46.5t-64.5 -17zM427 121l70 71l-70 71v100h-100l-71 70l-71 -70h-100v-100l-70 -71l70 -71v-100h100l71 -70l71 70h100v100z" />
    <glyph glyph-name="brightness-6" unicode="&#xf00df;" 
d="M256 64v256q35 0 64.5 -17t46.5 -46.5t17 -64.5t-17 -64.5t-46.5 -46.5t-64.5 -17zM427 121l70 71l-70 71v100h-100l-71 70l-71 -70h-100v-100l-70 -71l70 -71v-100h100l71 -70l71 70h100v100z" />
    <glyph glyph-name="brightness-7" unicode="&#xf00e0;" 
d="M256 277q-35 0 -60 -25t-25 -60t25 -60t60 -25t60 25t25 60t-25 60t-60 25zM256 64q-35 0 -64.5 17t-46.5 46.5t-17 64.5t17 64.5t46.5 46.5t64.5 17t64.5 -17t46.5 -46.5t17 -64.5t-17 -64.5t-46.5 -46.5t-64.5 -17zM427 263v100h-100l-71 70l-71 -70h-100v-100l-70 -71
l70 -71v-100h100l71 -70l71 70h100v100l70 71z" />
    <glyph glyph-name="brightness-auto" unicode="&#xf00e1;" 
d="M305 107l-15 42h-68l-15 -42h-41l69 192h42l69 -192h-41zM427 263v100h-100l-71 70l-71 -70h-100v-100l-70 -71l70 -71v-100h100l71 -70l71 70h100v100l70 71zM231 178h50l-25 78z" />
    <glyph glyph-name="broom" unicode="&#xf00e2;" 
d="M413 390l30 -30l-122 -122q17 -25 19 -52t-12 -46l-135 135q19 14 46 12t52 -19zM127 73q-32 32 -51.5 69t-25.5 73l104 45l159 -159l-45 -104q-36 5 -73 25t-68 51z" />
    <glyph glyph-name="brush" unicode="&#xf00e3;" 
d="M442 349l-29 29q-6 6 -15 6t-15 -6l-191 -191l59 -59l191 191q6 6 6 15t-6 15zM149 149q-26 0 -45 -18.5t-19 -45.5q0 -19 -14 -31q-13 -11 -28 -11q14 -20 37.5 -31.5t47.5 -11.5q35 0 60 25t25 60q0 27 -18.5 45.5t-45.5 18.5z" />
    <glyph glyph-name="bug" unicode="&#xf00e4;" 
d="M299 192h-86v43h86v-43zM299 107h-86v42h86v-42zM427 277h-60q-15 26 -39 42l35 35l-30 30l-47 -46q-15 3 -30 3t-30 -3l-47 46l-30 -30l35 -35q-24 -16 -39 -42h-60v-42h45q-2 -13 -2 -22v-21h-43v-43h43v-21q0 -9 2 -21h-45v-43h60q17 -29 46.5 -46.5t64.5 -17.5
t64.5 17.5t46.5 46.5h60v43h-45q2 12 2 21v21h43v43h-43v21q0 9 -2 22h45v42z" />
    <glyph glyph-name="bulletin-board" unicode="&#xf00e5;" 
d="M257 395l-54 -54h107zM85 299v-278h342v278h-342zM256 448l107 -107h64q17 0 29.5 -12.5t12.5 -29.5v-278q0 -17 -12.5 -29.5t-29.5 -12.5h-342q-17 0 -29.5 12.5t-12.5 29.5v278q0 17 12.5 29.5t29.5 12.5h64zM149 64v85h107v-85h-107zM299 85v150h85v-150h-85zM128 192
v64h107v-64h-107z" />
    <glyph glyph-name="bullhorn" unicode="&#xf00e6;" 
d="M256 277h-171q-17 0 -29.5 -12.5t-12.5 -29.5v-86q0 -17 12.5 -29.5t29.5 -12.5h22v-86q0 -9 6 -15t15 -6h43q9 0 15 6t6 15v86h64l107 -86v342zM459 192q0 -27 -14.5 -50.5t-39.5 -34.5v170q25 -12 39.5 -35t14.5 -50z" />
    <glyph glyph-name="bus" unicode="&#xf00e7;" 
d="M384 213h-256v107h256v-107zM352 85q-13 0 -22.5 9.5t-9.5 23t9.5 22.5t22.5 9t22.5 -9t9.5 -22.5t-9.5 -23t-22.5 -9.5zM160 85q-13 0 -22.5 9.5t-9.5 23t9.5 22.5t22.5 9t22.5 -9t9.5 -22.5t-9.5 -23t-22.5 -9.5zM85 107q0 -28 22 -48v-38q0 -9 6 -15t15 -6h21
q9 0 15.5 6t6.5 15v22h170v-22q0 -9 6.5 -15t15.5 -6h21q9 0 15 6t6 15v38q22 20 22 48v213q0 51 -50 71q-38 14 -121 14t-121 -14q-50 -20 -50 -71v-213z" />
    <glyph glyph-name="cached" unicode="&#xf00e8;" 
d="M405 277l-85 -85h64q0 -35 -17 -64.5t-46.5 -46.5t-64.5 -17q-32 0 -60 15l-31 -31q42 -27 91 -27q46 0 85.5 23t62.5 62.5t23 85.5h64zM128 192q0 35 17 64.5t46.5 46.5t64.5 17q32 0 60 -15l31 31q-42 27 -91 27q-46 0 -85.5 -23t-62.5 -62.5t-23 -85.5h-64l86 -85
l85 85h-64z" />
    <glyph glyph-name="cake" unicode="&#xf00e9;" 
d="M245 437q9 -4 20.5 -25.5t11.5 -38t-8.5 -24.5t-23.5 -8t-22 5q-10 6 -10 22q0 9 5 18q2 5 9 17q14 20 18 34zM395 256q40 0 68 -28t28 -68q0 -25 -11.5 -46t-31.5 -34v-123h-384v123q-20 13 -31.5 34t-11.5 46q0 40 28 68t68 28h96v64h64v-64h118zM256 107
q22 0 37.5 15.5t15.5 37.5h32q0 -22 16 -37.5t38 -15.5t37.5 15.5t15.5 37.5t-15.5 37.5t-37.5 15.5h-278q-22 0 -37.5 -15.5t-15.5 -37.5t15.5 -37.5t37.5 -15.5t38 15.5t16 37.5h32q0 -22 15.5 -37.5t37.5 -15.5z" />
    <glyph glyph-name="cake-layered" unicode="&#xf00ea;" 
d="M448 0v85q0 18 -12.5 30.5t-30.5 12.5h-21v64q0 18 -12.5 30.5t-30.5 12.5h-64v42h-42v-42h-64q-18 0 -30.5 -12.5t-12.5 -30.5v-64h-21q-18 0 -30.5 -12.5t-12.5 -30.5v-85h-43v-43h470v43h-43zM256 299q18 0 30.5 12.5t12.5 29.5q0 13 -7 22l-36 64l-37 -64
q-6 -10 -6 -22q0 -17 12.5 -29.5t30.5 -12.5z" />
    <glyph glyph-name="cake-variant" unicode="&#xf00eb;" 
d="M256 320q18 0 30.5 12.5t12.5 30.5q0 12 -7 22l-36 63l-36 -63q-7 -10 -7 -22q0 -18 12.5 -30.5t30.5 -12.5zM354 107l-23 23l-23 -23q-21 -21 -52 -21t-52 21l-23 23l-23 -23q-22 -22 -52 -22q-23 0 -42 13v-98q0 -9 6 -15t15 -6h342q9 0 15 6t6 15v98q-19 -13 -42 -13
q-30 0 -52 22zM384 256h-107v43h-42v-43h-107q-27 0 -45.5 -18.5t-18.5 -45.5v-33q0 -17 12.5 -29.5t30 -12.5t28.5 12l46 46l45 -46q12 -11 30 -11t29 11l46 46l46 -46q11 -12 28.5 -12t30 12.5t12.5 29.5v33q0 27 -18.5 45.5t-45.5 18.5z" />
    <glyph glyph-name="calculator" unicode="&#xf00ec;" 
d="M149 405h214q17 0 29.5 -12.5t12.5 -29.5v-342q0 -17 -12.5 -29.5t-29.5 -12.5h-214q-17 0 -29.5 12.5t-12.5 29.5v342q0 17 12.5 29.5t29.5 12.5zM149 363v-86h214v86h-214zM149 235v-43h43v43h-43zM235 235v-43h42v43h-42zM320 235v-43h43v43h-43zM149 149v-42h43v42
h-43zM235 149v-42h42v42h-42zM320 149v-42h43v42h-43zM149 64v-43h43v43h-43zM235 64v-43h42v43h-42zM320 64v-43h43v43h-43z" />
    <glyph glyph-name="calendar" unicode="&#xf00ed;" 
d="M405 43h-298v234h298v-234zM341 427v-43h-170v43h-43v-43h-21q-18 0 -30.5 -12.5t-12.5 -30.5v-298q0 -18 12.5 -30.5t30.5 -12.5h298q18 0 30.5 12.5t12.5 30.5v298q0 18 -12.5 30.5t-30.5 12.5h-21v43h-43zM363 192h-107v-107h107v107z" />
    <glyph glyph-name="calendar-blank" unicode="&#xf00ee;" 
d="M405 43h-298v234h298v-234zM341 427v-43h-170v43h-43v-43h-21q-18 0 -30.5 -12.5t-12.5 -30.5v-298q0 -18 12.5 -30.5t30.5 -12.5h298q18 0 30.5 12.5t12.5 30.5v298q0 18 -12.5 30.5t-30.5 12.5h-21v43h-43z" />
    <glyph glyph-name="calendar-check" unicode="&#xf00ef;" 
d="M405 43h-298v234h298v-234zM405 384h-21v43h-43v-43h-170v43h-43v-43h-21q-18 0 -30.5 -12.5t-12.5 -30.5v-298q0 -18 12.5 -30.5t30.5 -12.5h298q18 0 30.5 12.5t12.5 30.5v298q0 18 -12.5 30.5t-30.5 12.5zM353 212l-23 23l-104 -104l-45 45l-23 -23l68 -68z" />
    <glyph glyph-name="calendar-clock" unicode="&#xf00f0;" 
d="M320 171h32v-60l52 -31l-16 -27l-68 39v79zM405 277h-298v-234h99q-14 30 -14 64q0 40 20 74.5t54.5 54.5t74.5 20q34 0 64 -14v35zM107 0q-18 0 -30.5 12.5t-12.5 30.5v298q0 18 12.5 30.5t30.5 12.5h21v43h43v-43h170v43h43v-43h21q18 0 30.5 -12.5t12.5 -30.5v-130
q20 -20 31.5 -47t11.5 -57q0 -41 -20.5 -75t-54.5 -54.5t-75 -20.5q-30 0 -57 11.5t-47 31.5h-130zM341 210q-28 0 -51.5 -14t-37.5 -37.5t-14 -51.5t14 -52t37.5 -38t51.5 -14q21 0 40 8t33.5 22.5t22.5 33.5t8 40q0 28 -14 51.5t-38 37.5t-52 14z" />
    <glyph glyph-name="calendar-multiple" unicode="&#xf00f1;" 
d="M448 85v192h-299v-192h299zM448 384q18 0 30.5 -12.5t12.5 -30.5v-256q0 -17 -12.5 -29.5t-30.5 -12.5h-299q-17 0 -29.5 12.5t-12.5 29.5v256q0 18 12.5 30.5t29.5 12.5h22v43h42v-43h171v43h43v-43h21zM64 0h299v-43h-299q-18 0 -30.5 12.5t-12.5 30.5v256h43v-256z
M405 128h-85v85h85v-85z" />
    <glyph glyph-name="calendar-multiple-check" unicode="&#xf00f2;" 
d="M448 85v192h-299v-192h299zM448 384q18 0 30.5 -12.5t12.5 -30.5v-256q0 -17 -12.5 -29.5t-30.5 -12.5h-299q-17 0 -29.5 12.5t-12.5 29.5v256q0 18 12.5 30.5t29.5 12.5h22v43h42v-43h171v43h43v-43h21zM374 212l-95 -95l-57 58l23 22l34 -34l72 72zM64 0h299v-43h-299
q-18 0 -30.5 12.5t-12.5 30.5v256h43v-256z" />
    <glyph glyph-name="calendar-plus" unicode="&#xf00f3;" 
d="M405 43v234h-298v-234h298zM341 427h43v-43h21q18 0 30.5 -12.5t12.5 -30.5v-298q0 -18 -12.5 -30.5t-30.5 -12.5h-298q-18 0 -30.5 12.5t-12.5 30.5v298q0 18 12.5 30.5t30.5 12.5h21v43h43v-43h170v43zM235 245h42v-64h64v-42h-64v-64h-42v64h-64v42h64v64z" />
    <glyph glyph-name="calendar-remove" unicode="&#xf00f4;" 
d="M405 43h-298v234h298v-234zM405 384h-21v43h-43v-43h-170v43h-43v-43h-21q-18 0 -30.5 -12.5t-12.5 -30.5v-298q0 -18 12.5 -30.5t30.5 -12.5h298q18 0 30.5 12.5t12.5 30.5v298q0 18 -12.5 30.5t-30.5 12.5zM199 85l52 52l52 -52l22 23l-52 52l52 52l-22 23l-52 -52
l-52 52l-23 -23l52 -52l-52 -52z" />
    <glyph glyph-name="calendar-text" unicode="&#xf00f5;" 
d="M299 149h-150v-42h150v42zM405 43h-298v234h298v-234zM405 384h-21v43h-43v-43h-170v43h-43v-43h-21q-18 0 -30.5 -12.5t-12.5 -30.5v-298q0 -18 12.5 -30.5t30.5 -12.5h298q18 0 30.5 12.5t12.5 30.5v298q0 18 -12.5 30.5t-30.5 12.5zM363 235h-214v-43h214v43z" />
    <glyph glyph-name="calendar-today" unicode="&#xf00f6;" 
d="M149 235h107v-107h-107v107zM405 43h-298v234h298v-234zM405 384h-21v43h-43v-43h-170v43h-43v-43h-21q-18 0 -30.5 -12.5t-12.5 -30.5v-298q0 -18 12.5 -30.5t30.5 -12.5h298q18 0 30.5 12.5t12.5 30.5v298q0 18 -12.5 30.5t-30.5 12.5z" />
    <glyph glyph-name="call-made" unicode="&#xf00f7;" 
d="M192 341v-42h141l-248 -248l30 -30l248 248v-141h42v213h-213z" />
    <glyph glyph-name="call-merge" unicode="&#xf00f8;" 
d="M363 13l30 30l-73 72l-30 -30zM160 277h75v-119l-116 -115l30 -30l128 128v136h75l-96 96z" />
    <glyph glyph-name="call-missed" unicode="&#xf00f9;" 
d="M418 299l-162 -162l-119 119h98v43h-171v-171h43v98l149 -149l192 192z" />
    <glyph glyph-name="call-received" unicode="&#xf00fa;" 
d="M427 333l-30 30l-248 -248v141h-42v-213h213v42h-141z" />
    <glyph glyph-name="call-split" unicode="&#xf00fb;" 
d="M299 363l49 -49l-62 -62l30 -30l62 62l49 -49v128h-128zM213 363h-128v-128l49 49l101 -101v-162h42v180l-113 113z" />
    <glyph glyph-name="camcorder" unicode="&#xf00fc;" 
d="M149 405q-29 0 -53.5 -14t-38.5 -38.5t-14 -53.5v-278q0 -17 12.5 -29.5t29.5 -12.5h128q18 0 30.5 12.5t12.5 29.5v278q0 29 -14.5 53.5t-39 38.5t-53.5 14zM107 21q-9 0 -15.5 6.5t-6.5 15t6.5 15t15 6.5t15 -6.5t6.5 -15t-6.5 -15t-14.5 -6.5zM149 235q-26 0 -45 18.5
t-19 45t19 45.5t45.5 19t45 -19t18.5 -45.5t-18.5 -45t-45.5 -18.5zM469 256v-107q0 -17 -12.5 -29.5t-29.5 -12.5h-150v42h150v107h-150v43h150q17 0 29.5 -12.5t12.5 -30.5z" />
    <glyph glyph-name="video-box" unicode="&#xf00fd;" 
d="M384 107l-85 68v-68h-171v170h171v-68l85 68v-170zM427 363h-342q-17 0 -29.5 -12.5t-12.5 -30.5v-256q0 -18 12.5 -30.5t29.5 -12.5h342q17 0 29.5 12.5t12.5 30.5v256q0 18 -12.5 30.5t-29.5 12.5z" />
    <glyph glyph-name="video-box-off" unicode="&#xf00fe;" 
d="M128 277h16l155 -155v-15h-171v170zM48 427l-27 -27l43 -43q-10 -6 -15.5 -15.5t-5.5 -21.5v-256q0 -18 12.5 -30.5t29.5 -12.5h315l42 -42l27 27zM427 363h-260l85 -86h47v-46l12 -12l73 58v-132l85 -85v260q0 18 -12.5 30.5t-29.5 12.5z" />
    <glyph glyph-name="camcorder-off" unicode="&#xf00ff;" 
d="M471 -11l-270 271l-150 150l-28 -26l35 -34q-15 -21 -15 -51v-278q0 -17 12.5 -29.5t29.5 -12.5h128q18 0 30.5 12.5t12.5 29.5v130l21 -21v-23h24l143 -143zM107 21q-8 0 -15 7t-7 15t7 14.5t15 6.5t14.5 -6.5t6.5 -14.5t-6.5 -15t-14.5 -7zM149 235q-27 0 -45.5 18
t-18.5 46q0 6 5 19l81 -81q-5 0 -12 -1t-10 -1zM154 363l-37 36q16 6 32 6q30 0 54.5 -14t38.5 -38.5t14 -53.5v-39l-43 43q-1 24 -18 41t-41 19zM427 256h-150v43h150q17 0 29.5 -12.5t12.5 -30.5v-107q0 -17 -12.5 -29.5t-29.5 -12.5h-17l-43 42h60v107z" />
    <glyph glyph-name="camera" unicode="&#xf0100;" 
d="M85 363h64l43 42h128l43 -42h64q17 0 29.5 -12.5t12.5 -30.5v-256q0 -18 -12.5 -30.5t-29.5 -12.5h-342q-17 0 -29.5 12.5t-12.5 30.5v256q0 18 12.5 30.5t29.5 12.5zM256 299q-29 0 -53.5 -14.5t-39 -39t-14.5 -53.5t14.5 -53.5t39 -39t53.5 -14.5t53.5 14.5t39 39
t14.5 53.5t-14.5 53.5t-39 39t-53.5 14.5zM256 256q27 0 45.5 -18.5t18.5 -45.5t-18.5 -45.5t-45.5 -18.5t-45.5 18.5t-18.5 45.5t18.5 45.5t45.5 18.5z" />
    <glyph glyph-name="camera-enhance" unicode="&#xf0101;" 
d="M192 384l-39 -43h-68q-17 0 -29.5 -12.5t-12.5 -29.5v-256q0 -18 12.5 -30.5t29.5 -12.5h342q17 0 29.5 12.5t12.5 30.5v256q0 17 -12.5 29.5t-29.5 12.5h-68l-39 43h-128zM256 64q-21 0 -40.5 8t-34.5 23t-23.5 34.5t-8.5 41t8.5 41t23.5 34.5t34.5 23t40.5 8
q29 0 53.5 -14t39 -38.5t14.5 -53.5t-14.5 -53.5t-39 -39t-53.5 -14.5zM256 85l27 59l58 27l-58 26l-27 59l-27 -59l-58 -26l58 -27z" />
    <glyph glyph-name="camera-front" unicode="&#xf0102;" 
d="M149 405h214v-224q0 17 -20 30q-17 11 -44 18q-23 6 -43 6t-43 -6q-27 -7 -44 -18q-20 -13 -20 -30v224zM363 448h-214q-17 0 -29.5 -12.5t-12.5 -30.5v-298q0 -18 12.5 -30.5t29.5 -12.5h214q17 0 29.5 12.5t12.5 30.5v298q0 18 -12.5 30.5t-29.5 12.5zM256 277
q18 0 30.5 12.5t12.5 30.5t-12.5 30.5t-30.5 12.5t-30.5 -12.5t-12.5 -30.5t12.5 -30.5t30.5 -12.5zM299 21v-42h106v42h-106zM213 21h-106v-42h106v-43l64 64l-64 64v-43z" />
    <glyph glyph-name="camera-front-variant" unicode="&#xf0103;" 
d="M128 448h256q18 0 30.5 -12.5t12.5 -30.5v-426q0 -18 -12.5 -30.5t-30.5 -12.5h-256q-18 0 -30.5 12.5t-12.5 30.5v426q0 18 12.5 30.5t30.5 12.5zM256 320q27 0 45.5 -18.5t18.5 -45.5t-18.5 -45.5t-45.5 -18.5t-45.5 18.5t-18.5 45.5t18.5 45.5t45.5 18.5zM235 427v-43
h42v43h-42zM128 363v-267q0 14 17 26.5t46.5 19.5t64.5 7t64.5 -7t46.5 -19.5t17 -26.5v267h-256zM277 64h-85v-43h85v-42l64 64l-64 64v-43z" />
    <glyph glyph-name="camera-iris" unicode="&#xf0104;" 
d="M293 128l-83 -144q24 -5 46 -5q38 0 72.5 12.5t62.5 35.5l-78 135zM52 128q15 -47 49 -82.5t79 -52.5l79 135h-207zM182 192l-83 144q-27 -28 -41.5 -65.5t-14.5 -78.5q0 -21 4 -43h160zM465 235h-160l108 -187q27 29 41.5 66t14.5 78q0 22 -4 43zM460 256
q-15 47 -49 82.5t-79 52.5l-79 -135h207zM201 224l101 176q-24 5 -46 5q-38 0 -72.5 -12.5t-62.5 -35.5l78 -135z" />
    <glyph glyph-name="camera-party-mode" unicode="&#xf0105;" 
d="M256 85q-26 0 -48 11.5t-37 31.5h85q27 0 45.5 18.5t18.5 45.5q0 11 -4 21h45q2 -11 2 -21q0 -29 -14.5 -53.5t-39 -39t-53.5 -14.5zM256 299q26 0 48 -11.5t37 -31.5h-85q-27 0 -45.5 -18.5t-18.5 -45.5q0 -10 4 -21h-45q-2 9 -2 21q0 29 14.5 53.5t39 39t53.5 14.5z
M427 363h-68l-39 42h-128l-39 -42h-68q-17 0 -29.5 -12.5t-12.5 -30.5v-256q0 -18 12.5 -30.5t29.5 -12.5h342q17 0 29.5 12.5t12.5 30.5v256q0 18 -12.5 30.5t-29.5 12.5z" />
    <glyph glyph-name="camera-rear" unicode="&#xf0106;" 
d="M256 320q-18 0 -30.5 12.5t-12.5 30t12.5 30t30 12.5t30.5 -12.5t13 -30t-12.5 -30t-30.5 -12.5zM363 448h-214q-17 0 -29.5 -12.5t-12.5 -30.5v-298q0 -18 12.5 -30.5t29.5 -12.5h214q17 0 29.5 12.5t12.5 30.5v298q0 18 -12.5 30.5t-29.5 12.5zM299 21v-42h106v42h-106
zM213 21h-106v-42h106v-43l64 64l-64 64v-43z" />
    <glyph glyph-name="camera-rear-variant" unicode="&#xf0107;" 
d="M128 448h256q18 0 30.5 -12.5t12.5 -30.5v-426q0 -18 -12.5 -30.5t-30.5 -12.5h-256q-18 0 -30.5 12.5t-12.5 30.5v426q0 18 12.5 30.5t30.5 12.5zM256 405q-18 0 -30.5 -12.5t-12.5 -30t12.5 -30t30.5 -12.5t30.5 12.5t12.5 30t-12.5 30t-30.5 12.5zM277 64h-85v-43h85
v-42l64 64l-64 64v-43z" />
    <glyph glyph-name="camera-switch" unicode="&#xf0108;" 
d="M320 117v54h-128v-54l-75 75l75 75v-54h128v54l75 -75zM427 363h-68l-39 42h-128l-39 -42h-68q-17 0 -29.5 -12.5t-12.5 -30.5v-256q0 -18 12.5 -30.5t29.5 -12.5h342q17 0 29.5 12.5t12.5 30.5v256q0 18 -12.5 30.5t-29.5 12.5z" />
    <glyph glyph-name="camera-timer" unicode="&#xf0109;" 
d="M105 313q-6 6 -6 15t6.5 15t15 6t14.5 -6l151 -121q13 -12 13 -30t-12.5 -30.5t-30.5 -12.5t-30 13zM256 21q46 0 85.5 23t62.5 62.5t23 85.5q0 35 -13.5 66t-36.5 55l30 30q29 -30 45.5 -69t16.5 -81.5t-16 -82t-46 -69.5t-69.5 -46t-81.5 -16t-81.5 16t-69.5 46
t-46 69.5t-16 81.5h42q0 -46 23 -85.5t62.5 -62.5t85.5 -23zM256 427q18 0 30.5 -12.5t12.5 -30.5t-12.5 -30.5t-30.5 -12.5t-30.5 12.5t-12.5 30.5t12.5 30.5t30.5 12.5z" />
    <glyph glyph-name="candycane" unicode="&#xf010a;" 
d="M213 235q0 -18 -12.5 -30.5t-30 -12.5t-30 12.5t-12.5 30.5v42q0 19 6 39l79 -80v-1zM256 405q24 0 45 -8l-46 -77q-13 0 -23.5 -7.5t-14.5 -19.5l-63 62q18 24 45 37t57 13zM379 313l-80 -80v44q0 12 -6 22l45 77q30 -25 41 -63zM384 169l-85 -86v90l85 85v-89zM384 21
q0 -17 -12.5 -29.5t-30 -12.5t-30 12.5t-12.5 29.5v2l85 86v-88z" />
    <glyph glyph-name="car" unicode="&#xf010b;" 
d="M107 213l32 96h234l32 -96h-298zM373 107q-13 0 -22.5 9t-9.5 22.5t9.5 23t23 9.5t22.5 -9.5t9 -23t-9 -22.5t-23 -9zM139 107q-14 0 -23 9t-9 22.5t9 23t22.5 9.5t23 -9.5t9.5 -23t-9.5 -22.5t-22.5 -9zM404 320q-4 9 -12 15t-19 6h-234q-11 0 -19 -6t-12 -15l-44 -128
v-171q0 -9 6 -15t15 -6h22q9 0 15 6t6 15v22h256v-22q0 -9 6 -15t15 -6h22q9 0 15 6t6 15v171z" />
    <glyph glyph-name="car-battery" unicode="&#xf010c;" 
d="M85 384v-64h-64v-299h470v299h-64v64h-128v-64h-86v64h-128zM64 277h384v-213h-384v213zM320 235v-43h-43v-43h43v-42h43v42h42v43h-42v43h-43zM107 192v-43h128v43h-128z" />
    <glyph glyph-name="car-connected" unicode="&#xf010d;" 
d="M107 149h298l-32 96h-234zM373 43q14 0 23 9t9 22.5t-9 23t-22.5 9.5t-23 -9.5t-9.5 -23t9.5 -22.5t22.5 -9zM139 43q13 0 22.5 9t9.5 22.5t-9.5 23t-23 9.5t-22.5 -9.5t-9 -23t9 -22.5t23 -9zM404 256l44 -128v-171q0 -9 -6 -15t-15 -6h-22q-9 0 -15 6t-6 15v22h-256
v-22q0 -9 -6 -15t-15 -6h-22q-9 0 -15 6t-6 15v171l44 128q4 9 12 15t19 6h234q11 0 19 -6t12 -15zM256 448q34 0 65 -13t56 -37l-31 -30q-18 18 -41.5 27.5t-48.5 9.5t-48.5 -9.5t-41.5 -27.5l-30 30q24 24 55 37t65 13zM256 363q35 0 60 -26l-30 -30q-13 13 -30 13
t-30 -13l-30 30q25 26 60 26z" />
    <glyph glyph-name="car-wash" unicode="&#xf010e;" 
d="M107 171l32 96h234l32 -96h-298zM373 64q-13 0 -22.5 9.5t-9.5 22.5t9.5 22.5t23 9.5t22.5 -9.5t9 -22.5t-9 -22.5t-23 -9.5zM139 64q-14 0 -23 9.5t-9 22.5t9 22.5t22.5 9.5t23 -9.5t9.5 -22.5t-9.5 -22.5t-22.5 -9.5zM404 277q-4 10 -12 16t-19 6h-234q-11 0 -19 -6
t-12 -16l-44 -128v-170q0 -9 6 -15.5t15 -6.5h22q9 0 15 6.5t6 15.5v21h256v-21q0 -9 6 -15.5t15 -6.5h22q9 0 15 6.5t6 15.5v170zM149 341q14 0 23 9.5t9 23t-16 36.5q-8 12 -16 21l-8 -10q-9 -13 -15 -23q-9 -15 -9 -25q0 -13 9.5 -22.5t22.5 -9.5zM256 341q13 0 22.5 9.5
t9.5 22.5q0 10 -8 25q-6 10 -16 23l-8 10l-8 -10q-10 -13 -16 -23q-8 -15 -8 -25q0 -13 9.5 -22.5t22.5 -9.5zM363 341q13 0 22.5 9.5t9.5 23t-16 36.5q-8 12 -16 21v0l-9 -10q-9 -13 -15 -23q-8 -15 -8 -25q0 -13 9 -22.5t23 -9.5z" />
    <glyph glyph-name="carrot" unicode="&#xf010f;" 
d="M341 235l-4 -22h-49q-4 0 -7.5 -3t-3.5 -7.5t3.5 -7.5t7.5 -3h45l-22 -107h-44q-5 0 -8 -3t-3 -7.5t3 -7.5t8 -3h40l-8 -43q0 -17 -12.5 -29.5t-30.5 -12.5t-30.5 12.5t-12.5 29.5l-21 107h32q4 0 7.5 3t3.5 7.5t-3.5 7.5t-7.5 3h-36l-17 86q0 19 13 34.5t36 22.5l-30 43
q-5 8 -3.5 16.5t9 13.5t16 3.5t13.5 -8.5l10 -14v38q0 9 6 15t15 6t15 -6t6 -15v-49l32 37q6 7 14.5 8t15.5 -5t7.5 -14.5t-5.5 -15.5l-45 -54q21 -8 33 -23t12 -33z" />
    <glyph glyph-name="cart" unicode="&#xf0110;" 
d="M363 64q-18 0 -30.5 -12.5t-12.5 -30t12.5 -30t30 -12.5t30 12.5t12.5 30t-12.5 30t-29.5 12.5zM21 405v-42h43l77 -162l-29 -53q-5 -9 -5 -20q0 -18 12.5 -30.5t29.5 -12.5h256v43h-247q-2 0 -3.5 1.5t-1.5 3.5t1 3l19 35h159q12 0 22 6t15 16l76 138q3 6 3 10
q0 9 -6 15.5t-15 6.5h-316l-20 42h-70zM149 64q-17 0 -29.5 -12.5t-12.5 -30t12.5 -30t30 -12.5t30 12.5t12.5 30t-12.5 30t-30.5 12.5z" />
    <glyph glyph-name="cart-outline" unicode="&#xf0111;" 
d="M363 64q17 0 29.5 -12.5t12.5 -30t-12.5 -30t-30 -12.5t-30 12.5t-12.5 30t12.5 30t30.5 12.5zM21 405h70l20 -42h316q9 0 15 -6.5t6 -15.5q0 -4 -3 -10l-76 -138q-5 -10 -15 -16t-22 -6h-159l-19 -35l-1 -3q0 -2 1.5 -3.5t3.5 -1.5h247v-43h-256q-17 0 -29.5 12.5
t-12.5 30.5q0 11 5 20l29 53l-77 162h-43v42zM149 64q18 0 30.5 -12.5t12.5 -30t-12.5 -30t-30 -12.5t-30 12.5t-12.5 30t12.5 30t29.5 12.5zM341 213l60 107h-270l50 -107h160z" />
    <glyph glyph-name="cart-plus" unicode="&#xf0112;" 
d="M235 256h42v64h64v43h-64v64h-42v-64h-64v-43h64v-64zM149 64q-17 0 -29.5 -12.5t-12.5 -30t12.5 -30t30 -12.5t30 12.5t12.5 30t-12.5 30t-30.5 12.5zM363 64q-18 0 -30.5 -12.5t-12.5 -30t12.5 -30t30 -12.5t30 12.5t12.5 30t-12.5 30t-29.5 12.5zM153 133l1 3l19 35
h159q12 0 22 6t15 16l82 149l-37 21l-82 -150h-150l-91 192h-70v-42h43l77 -162l-29 -53q-5 -9 -5 -20q0 -18 12.5 -30.5t29.5 -12.5h256v43h-247q-2 0 -3.5 1.5t-1.5 3.5z" />
    <glyph glyph-name="case-sensitive-alt" unicode="&#xf0113;" 
d="M427 149q0 24 -9.5 33.5t-33.5 9.5h-43v21q0 12 -1.5 16t-10.5 5q-7 1 -30 1v-192h85q24 0 33.5 9.5t9.5 32.5v64zM256 192q0 24 -9.5 33.5t-33.5 9.5h-85q-24 0 -33.5 -9.5t-9.5 -33.5v-149h43v64h85v-64h43v149zM213 299h86v42h-86v-42zM469 256v-235
q0 -17 -12.5 -29.5t-29.5 -12.5h-342q-17 0 -29.5 12.5t-12.5 29.5v235q0 18 12.5 30.5t29.5 12.5h86v42l42 43h86l42 -43v-42h86q17 0 29.5 -12.5t12.5 -30.5v0zM341 85h43v64h-43v-64zM128 192h85v-43h-85v43z" />
    <glyph glyph-name="cash" unicode="&#xf0114;" 
d="M64 320h384v-256h-384v256zM256 256q27 0 45.5 -18.5t18.5 -45.5t-18.5 -45.5t-45.5 -18.5t-45.5 18.5t-18.5 45.5t18.5 45.5t45.5 18.5zM149 277q0 -17 -12.5 -29.5t-29.5 -12.5v-86q17 0 29.5 -12.5t12.5 -29.5h214q0 17 12.5 29.5t29.5 12.5v86q-17 0 -29.5 12.5
t-12.5 29.5h-214z" />
    <glyph glyph-name="cash-100" unicode="&#xf0115;" 
d="M43 341h426v-320h-426v320zM427 64v235h-342v-235h342zM363 277q0 -17 12.5 -29.5t29.5 -12.5v-107q-17 0 -29.5 -12.5t-12.5 -30.5h-214q0 18 -12.5 30.5t-29.5 12.5v107q17 0 29.5 12.5t12.5 29.5h214zM363 171v21q0 18 -9.5 30.5t-23 12.5t-22.5 -12.5t-9 -30.5v-21
q0 -18 9 -30.5t22.5 -12.5t23 12.5t9.5 30.5zM331 213q4 0 7 -3t3 -7v-43q0 -4 -3 -7.5t-7.5 -3.5t-7.5 3.5t-3 7.5v43q0 4 3 7t8 3zM277 171v21q0 18 -9 30.5t-22.5 12.5t-23 -12.5t-9.5 -30.5v-21q0 -18 9.5 -30.5t23 -12.5t22.5 12.5t9 30.5zM245 213q5 0 8 -3t3 -7v-43
q0 -4 -3 -7.5t-7.5 -3.5t-7.5 3.5t-3 7.5v43q0 4 3 7t7 3zM171 128h21v107h-21l-22 -11v-21l22 10v-85z" />
    </font>
</defs>
</svg>
